  0
SECTION
  2
HEADER
  9
$ACADVER
  1
AC1018
  9
$ACADMAINTVER
 70
   104
  9
$DWGCODEPAGE
  3
ANSI_1250
  9
$LASTSAVEDBY
  1
bonzo
  9
$INSBASE
 10
0.0
 20
0.0
 30
0.0
  9
$EXTMIN
 10
12.71940459914262
 20
-1.378958658870701
 30
0.0
  9
$EXTMAX
 10
22.43598134171699
 20
6.052189446247956
 30
0.0
  9
$LIMMIN
 10
0.0
 20
0.0
  9
$LIMMAX
 10
12.0
 20
9.0
  9
$ORTHOMODE
 70
     1
  9
$REGENMODE
 70
     1
  9
$FILLMODE
 70
     1
  9
$QTEXTMODE
 70
     0
  9
$MIRRTEXT
 70
     1
  9
$LTSCALE
 40
1.0
  9
$ATTMODE
 70
     1
  9
$TEXTSIZE
 40
0.2
  9
$TRACEWID
 40
0.05
  9
$TEXTSTYLE
  7
Standard
  9
$CLAYER
  8
STREFA BEZPIECZEŃSTWA
  9
$CELTYPE
  6
ByLayer
  9
$CECOLOR
 62
   256
  9
$CELTSCALE
 40
1.0
  9
$DISPSILH
 70
     0
  9
$DIMSCALE
 40
0.02
  9
$DIMASZ
 40
3.0
  9
$DIMEXO
 40
20.0
  9
$DIMDLI
 40
0.0
  9
$DIMRND
 40
0.1
  9
$DIMDLE
 40
0.0
  9
$DIMEXE
 40
5.0
  9
$DIMTP
 40
0.0
  9
$DIMTM
 40
0.0
  9
$DIMTXT
 40
9.0
  9
$DIMCEN
 40
12.0
  9
$DIMTSZ
 40
0.0
  9
$DIMTOL
 70
     0
  9
$DIMLIM
 70
     0
  9
$DIMTIH
 70
     0
  9
$DIMTOH
 70
     0
  9
$DIMSE1
 70
     1
  9
$DIMSE2
 70
     1
  9
$DIMTAD
 70
     1
  9
$DIMZIN
 70
     1
  9
$DIMBLK
  1

  9
$DIMASO
 70
     1
  9
$DIMSHO
 70
     1
  9
$DIMPOST
  1

  9
$DIMAPOST
  1

  9
$DIMALT
 70
     0
  9
$DIMALTD
 70
     4
  9
$DIMALTF
 40
1.0
  9
$DIMLFAC
 40
1.0
  9
$DIMTOFL
 70
     1
  9
$DIMTVP
 40
0.0
  9
$DIMTIX
 70
     1
  9
$DIMSOXD
 70
     0
  9
$DIMSAH
 70
     1
  9
$DIMBLK1
  1
MAR-STRZ
  9
$DIMBLK2
  1
MAR-STRZ
  9
$DIMSTYLE
  2
AR SKALA 1-50
  9
$DIMCLRD
 70
   256
  9
$DIMCLRE
 70
   256
  9
$DIMCLRT
 70
   256
  9
$DIMTFAC
 40
0.01
  9
$DIMGAP
 40
6.0
  9
$DIMJUST
 70
     0
  9
$DIMSD1
 70
     0
  9
$DIMSD2
 70
     0
  9
$DIMTOLJ
 70
     1
  9
$DIMTZIN
 70
     0
  9
$DIMALTZ
 70
     0
  9
$DIMALTTZ
 70
     0
  9
$DIMUPT
 70
     0
  9
$DIMDEC
 70
     2
  9
$DIMTDEC
 70
     2
  9
$DIMALTU
 70
     2
  9
$DIMALTTD
 70
     4
  9
$DIMTXSTY
  7
AR 01 SWIS
  9
$DIMAUNIT
 70
     0
  9
$DIMADEC
 70
     1
  9
$DIMALTRND
 40
0.0
  9
$DIMAZIN
 70
     0
  9
$DIMDSEP
 70
    46
  9
$DIMATFIT
 70
     3
  9
$DIMFRAC
 70
     0
  9
$DIMLDRBLK
  1
MAR-STRZ
  9
$DIMLUNIT
 70
     2
  9
$DIMLWD
 70
    -2
  9
$DIMLWE
 70
    -2
  9
$DIMTMOVE
 70
     2
  9
$LUNITS
 70
     2
  9
$LUPREC
 70
     4
  9
$SKETCHINC
 40
0.1
  9
$FILLETRAD
 40
0.0
  9
$AUNITS
 70
     0
  9
$AUPREC
 70
     0
  9
$MENU
  1
.
  9
$ELEVATION
 40
0.0
  9
$PELEVATION
 40
0.0
  9
$THICKNESS
 40
0.0
  9
$LIMCHECK
 70
     0
  9
$CHAMFERA
 40
0.5
  9
$CHAMFERB
 40
0.5
  9
$CHAMFERC
 40
1.0
  9
$CHAMFERD
 40
0.0
  9
$SKPOLY
 70
     0
  9
$TDCREATE
 40
2455956.499359827
  9
$TDUCREATE
 40
2455956.416026493
  9
$TDUPDATE
 40
2459311.295106886
  9
$TDUUPDATE
 40
2459311.211773553
  9
$TDINDWG
 40
0.1439561921
  9
$TDUSRTIMER
 40
0.1439561921
  9
$USRTIMER
 70
     1
  9
$ANGBASE
 50
0.0
  9
$ANGDIR
 70
     0
  9
$PDMODE
 70
     0
  9
$PDSIZE
 40
0.0
  9
$PLINEWID
 40
0.0
  9
$SPLFRAME
 70
     0
  9
$SPLINETYPE
 70
     6
  9
$SPLINESEGS
 70
     8
  9
$HANDSEED
  5
3B95
  9
$SURFTAB1
 70
     6
  9
$SURFTAB2
 70
     6
  9
$SURFTYPE
 70
     6
  9
$SURFU
 70
     6
  9
$SURFV
 70
     6
  9
$UCSBASE
  2

  9
$UCSNAME
  2

  9
$UCSORG
 10
0.0
 20
0.0
 30
0.0
  9
$UCSXDIR
 10
1.0
 20
0.0
 30
0.0
  9
$UCSYDIR
 10
0.0
 20
1.0
 30
0.0
  9
$UCSORTHOREF
  2

  9
$UCSORTHOVIEW
 70
     0
  9
$UCSORGTOP
 10
0.0
 20
0.0
 30
0.0
  9
$UCSORGBOTTOM
 10
0.0
 20
0.0
 30
0.0
  9
$UCSORGLEFT
 10
0.0
 20
0.0
 30
0.0
  9
$UCSORGRIGHT
 10
0.0
 20
0.0
 30
0.0
  9
$UCSORGFRONT
 10
0.0
 20
0.0
 30
0.0
  9
$UCSORGBACK
 10
0.0
 20
0.0
 30
0.0
  9
$PUCSBASE
  2

  9
$PUCSNAME
  2

  9
$PUCSORG
 10
0.0
 20
0.0
 30
0.0
  9
$PUCSXDIR
 10
1.0
 20
0.0
 30
0.0
  9
$PUCSYDIR
 10
0.0
 20
1.0
 30
0.0
  9
$PUCSORTHOREF
  2

  9
$PUCSORTHOVIEW
 70
     0
  9
$PUCSORGTOP
 10
0.0
 20
0.0
 30
0.0
  9
$PUCSORGBOTTOM
 10
0.0
 20
0.0
 30
0.0
  9
$PUCSORGLEFT
 10
0.0
 20
0.0
 30
0.0
  9
$PUCSORGRIGHT
 10
0.0
 20
0.0
 30
0.0
  9
$PUCSORGFRONT
 10
0.0
 20
0.0
 30
0.0
  9
$PUCSORGBACK
 10
0.0
 20
0.0
 30
0.0
  9
$USERI1
 70
     0
  9
$USERI2
 70
     0
  9
$USERI3
 70
     0
  9
$USERI4
 70
     0
  9
$USERI5
 70
     0
  9
$USERR1
 40
0.0
  9
$USERR2
 40
0.0
  9
$USERR3
 40
0.0
  9
$USERR4
 40
0.0
  9
$USERR5
 40
0.0
  9
$WORLDVIEW
 70
     1
  9
$SHADEDGE
 70
     3
  9
$SHADEDIF
 70
    70
  9
$TILEMODE
 70
     1
  9
$MAXACTVP
 70
    64
  9
$PINSBASE
 10
0.0
 20
0.0
 30
0.0
  9
$PLIMCHECK
 70
     0
  9
$PEXTMIN
 10
6.550360952942241
 20
3.271404891950567
 30
-0.0000000000000058
  9
$PEXTMAX
 10
296.6185267327722
 20
206.4473139376702
 30
0.0000000000000104
  9
$PLIMMIN
 10
3.386557152386103
 20
0.1071894225185588
  9
$PLIMMAX
 10
300.4395661855892
 20
209.9958460387295
  9
$UNITMODE
 70
     0
  9
$VISRETAIN
 70
     1
  9
$PLINEGEN
 70
     0
  9
$PSLTSCALE
 70
     0
  9
$TREEDEPTH
 70
  3020
  9
$CMLSTYLE
  2
Standard
  9
$CMLJUST
 70
     0
  9
$CMLSCALE
 40
1.0
  9
$PROXYGRAPHICS
 70
     1
  9
$MEASUREMENT
 70
     0
  9
$CELWEIGHT
370
    -1
  9
$ENDCAPS
280
     0
  9
$JOINSTYLE
280
     0
  9
$LWDISPLAY
290
     0
  9
$INSUNITS
 70
     1
  9
$HYPERLINKBASE
  1

  9
$STYLESHEET
  1

  9
$XEDIT
290
     1
  9
$CEPSNTYPE
380
     0
  9
$PSTYLEMODE
290
     1
  9
$FINGERPRINTGUID
  2
{1B330B5B-CE04-4EC8-B886-8C8BFC3A02BF}
  9
$VERSIONGUID
  2
{EBD76C94-C4C7-4A3F-93AE-A5932A8E1C49}
  9
$EXTNAMES
290
     1
  9
$PSVPSCALE
 40
0.0
  9
$OLESTARTUP
290
     0
  9
$SORTENTS
280
   127
  9
$INDEXCTL
280
     0
  9
$HIDETEXT
280
     1
  9
$XCLIPFRAME
290
     0
  9
$HALOGAP
280
     0
  9
$OBSCOLOR
 70
   257
  9
$OBSLTYPE
280
     0
  9
$INTERSECTIONDISPLAY
280
     0
  9
$INTERSECTIONCOLOR
 70
   257
  9
$DIMASSOC
280
     2
  9
$PROJECTNAME
  1

  0
ENDSEC
  0
SECTION
  2
CLASSES
  0
CLASS
  1
ACDBDICTIONARYWDFLT
  2
AcDbDictionaryWithDefault
  3
ObjectDBX Classes
 90
        0
 91
        1
280
     0
281
     0
  0
CLASS
  1
VISUALSTYLE
  2
AcDbVisualStyle
  3
ObjectDBX Classes
 90
     4095
 91
       16
280
     0
281
     0
  0
CLASS
  1
MATERIAL
  2
AcDbMaterial
  3
ObjectDBX Classes
 90
     1153
 91
        3
280
     0
281
     0
  0
CLASS
  1
DICTIONARYVAR
  2
AcDbDictionaryVar
  3
ObjectDBX Classes
 90
        0
 91
        9
280
     0
281
     0
  0
CLASS
  1
TABLESTYLE
  2
AcDbTableStyle
  3
ObjectDBX Classes
 90
     4095
 91
        1
280
     0
281
     0
  0
CLASS
  1
SORTENTSTABLE
  2
AcDbSortentsTable
  3
ObjectDBX Classes
 90
        0
 91
        1
280
     0
281
     0
  0
CLASS
  1
DIMASSOC
  2
AcDbDimAssoc
  3
"AcDbDimAssoc|Product Desc:     AcDim ARX App For Dimension|Company:          Autodesk, Inc.|WEB Address:      www.autodesk.com"
 90
        0
 91
        2
280
     0
281
     0
  0
CLASS
  1
SCALE
  2
AcDbScale
  3
ObjectDBX Classes
 90
     1153
 91
       33
280
     0
281
     0
  0
CLASS
  1
MLEADERSTYLE
  2
AcDbMLeaderStyle
  3
ACDB_MLEADERSTYLE_CLASS
 90
     4095
 91
        1
280
     0
281
     0
  0
CLASS
  1
CELLSTYLEMAP
  2
AcDbCellStyleMap
  3
ObjectDBX Classes
 90
     1152
 91
        2
280
     0
281
     0
  0
ENDSEC
  0
SECTION
  2
TABLES
  0
TABLE
  2
VPORT
  5
8
102
{ACAD_XDICTIONARY
360
84C
102
}
330
0
100
AcDbSymbolTable
 70
     1
  0
VPORT
  5
29
330
8
100
AcDbSymbolTableRecord
100
AcDbViewportTableRecord
  2
*Active
 70
     0
 10
0.0
 20
0.0
 11
1.0
 21
1.0
 12
17.44629509461926
 22
2.660213173809378
 13
0.0
 23
0.0
 14
0.5
 24
0.5
 15
0.5
 25
0.5
 16
0.0
 26
0.0
 36
1.0
 17
0.0
 27
0.0
 37
-1000.0
 40
10.14186579306204
 41
2.060556464811783
 42
50.0
 43
4.148984367261674
 44
9.217858496371269
 50
0.0
 51
0.0
 71
     0
 72
   100
 73
     1
 74
     3
 75
     0
 76
     0
 77
     0
 78
     0
281
     0
 65
     1
110
0.0
120
0.0
130
0.0
111
1.0
121
0.0
131
0.0
112
0.0
122
1.0
132
0.0
 79
     0
146
0.0
  0
ENDTAB
  0
TABLE
  2
LTYPE
  5
5
330
0
100
AcDbSymbolTable
 70
     2
  0
LTYPE
  5
14
330
5
100
AcDbSymbolTableRecord
100
AcDbLinetypeTableRecord
  2
ByBlock
 70
     0
  3

 72
    65
 73
     0
 40
0.0
  0
LTYPE
  5
15
330
5
100
AcDbSymbolTableRecord
100
AcDbLinetypeTableRecord
  2
ByLayer
 70
     0
  3

 72
    65
 73
     0
 40
0.0
  0
LTYPE
  5
16
330
5
100
AcDbSymbolTableRecord
100
AcDbLinetypeTableRecord
  2
Continuous
 70
     0
  3
Solid line
 72
    65
 73
     0
 40
0.0
  0
LTYPE
  5
886
330
5
100
AcDbSymbolTableRecord
100
AcDbLinetypeTableRecord
  2
DASHED
 70
     0
  3
Dashed __ __ __ __ __ __ __ __ __ __ __ __ __ _
 72
    65
 73
     2
 40
0.75
 49
0.5
 74
     0
 49
-0.25
 74
     0
  0
ENDTAB
  0
TABLE
  2
LAYER
  5
2
102
{ACAD_XDICTIONARY
360
7D1
102
}
330
0
100
AcDbSymbolTable
 70
     4
  0
LAYER
  5
10
102
{ACAD_XDICTIONARY
360
3B76
102
}
330
2
100
AcDbSymbolTableRecord
100
AcDbLayerTableRecord
  2
0
 70
     0
 62
     7
  6
Continuous
370
    -3
390
F
  0
LAYER
  5
87B
102
{ACAD_XDICTIONARY
360
3B78
102
}
330
2
100
AcDbSymbolTableRecord
100
AcDbLayerTableRecord
  2
STREFA BEZPIECZEŃSTWA
 70
     0
 62
     7
  6
DASHED
370
    -3
390
F
1001
AcAecLayerStandard
1000

1000

  0
LAYER
  5
87D
102
{ACAD_XDICTIONARY
360
3B7A
102
}
330
2
100
AcDbSymbolTableRecord
100
AcDbLayerTableRecord
  2
WYMIAR
 70
     0
 62
     7
  6
Continuous
370
    -3
390
F
1001
AcAecLayerStandard
1000

1000

  0
LAYER
  5
8CC
330
2
100
AcDbSymbolTableRecord
100
AcDbLayerTableRecord
  2
Defpoints
 70
     0
 62
     7
  6
Continuous
290
     0
370
     5
390
F
1001
RAK
1000
{ACET-LAYISO
1070
     0
1070
     7
1000
Continuous
1071
        5
1071
        0
1005
F
1000
ACET-LAYISO}
  0
ENDTAB
  0
TABLE
  2
STYLE
  5
3
330
0
100
AcDbSymbolTable
 70
     2
  0
STYLE
  5
11
330
3
100
AcDbSymbolTableRecord
100
AcDbTextStyleTableRecord
  2
Standard
 70
     0
 40
0.0
 41
1.0
 50
0.0
 71
     0
 42
0.2
  3
txt
  4

  0
STYLE
  5
8CE
330
3
100
AcDbSymbolTableRecord
100
AcDbTextStyleTableRecord
  2
AR 01 SWIS
 70
     0
 40
0.0
 41
1.0
 50
0.0
 71
     0
 42
55.0
  3

  4

1001
ACAD
1000
Swis721 Cn BT
1071
       34
  0
ENDTAB
  0
TABLE
  2
VIEW
  5
6
330
0
100
AcDbSymbolTable
 70
     0
  0
ENDTAB
  0
TABLE
  2
UCS
  5
7
330
0
100
AcDbSymbolTable
 70
     0
  0
ENDTAB
  0
TABLE
  2
APPID
  5
9
330
0
100
AcDbSymbolTable
 70
     9
  0
APPID
  5
12
330
9
100
AcDbSymbolTableRecord
100
AcDbRegAppTableRecord
  2
ACAD
 70
     0
  0
APPID
  5
7CB
330
9
100
AcDbSymbolTableRecord
100
AcDbRegAppTableRecord
  2
ACAD_PSEXT
 70
     0
  0
APPID
  5
875
330
9
100
AcDbSymbolTableRecord
100
AcDbRegAppTableRecord
  2
ACAD_EXEMPT_FROM_CAD_STANDARDS
 70
     0
  0
APPID
  5
87C
330
9
100
AcDbSymbolTableRecord
100
AcDbRegAppTableRecord
  2
AcAecLayerStandard
 70
     0
  0
APPID
  5
8D4
330
9
100
AcDbSymbolTableRecord
100
AcDbRegAppTableRecord
  2
RAK
 70
     0
  0
APPID
  5
8D5
330
9
100
AcDbSymbolTableRecord
100
AcDbRegAppTableRecord
  2
ACAD_DSTYLE_DIMJOGGED_JOGANGLE_SYMBOL
 70
     0
  0
APPID
  5
8D6
330
9
100
AcDbSymbolTableRecord
100
AcDbRegAppTableRecord
  2
ACAD_DSTYLE_DIMJAG
 70
     0
  0
APPID
  5
8D7
330
9
100
AcDbSymbolTableRecord
100
AcDbRegAppTableRecord
  2
ACAD_DSTYLE_DIMTALN
 70
     0
  0
APPID
  5
31E9
330
9
100
AcDbSymbolTableRecord
100
AcDbRegAppTableRecord
  2
ACAD_MLEADERVER
 70
     0
  0
ENDTAB
  0
TABLE
  2
DIMSTYLE
  5
A
330
0
100
AcDbSymbolTable
 70
     2
100
AcDbDimStyleTable
 71
     1
340
8CF
  0
DIMSTYLE
105
8CF
102
{ACAD_REACTORS
330
3B38
330
3B4C
102
}
330
A
100
AcDbSymbolTableRecord
100
AcDbDimStyleTableRecord
  2
AR SKALA 1-50
 70
     0
 40
0.02
 41
3.0
 42
20.0
 43
0.0
 44
5.0
 45
0.1
 73
     0
 74
     0
 75
     1
 76
     1
 77
     1
 78
     1
140
9.0
141
12.0
143
1.0
146
0.01
147
6.0
171
     4
172
     1
173
     1
174
     1
176
   256
177
   256
178
   256
179
     1
271
     2
272
     2
274
     4
279
     2
340
8CE
341
8BC
343
8BC
344
8BC
  0
DIMSTYLE
105
B3C
330
A
100
AcDbSymbolTableRecord
100
AcDbDimStyleTableRecord
  2
Standard
 70
     0
340
11
  0
ENDTAB
  0
TABLE
  2
BLOCK_RECORD
  5
1
330
0
100
AcDbSymbolTable
 70
     5
  0
BLOCK_RECORD
  5
1F
102
{ACAD_XDICTIONARY
360
5F8
102
}
330
1
100
AcDbSymbolTableRecord
100
AcDbBlockTableRecord
  2
*Model_Space
340
22
  0
BLOCK_RECORD
  5
1B
330
1
100
AcDbSymbolTableRecord
100
AcDbBlockTableRecord
  2
*Paper_Space
340
1E
  0
BLOCK_RECORD
  5
8BC
330
1
100
AcDbSymbolTableRecord
100
AcDbBlockTableRecord
  2
MAR-STRZ
340
0
310
2800000020000000200000000100080000000000000400000000000000000000000000000000000000000000000080000080000000808000800000008000800080800000C0C0C000C0DCC000F0CAA6000020400000206000002080000020A0000020C0000020E00000400000004020000040400000406000004080000040A0
310
000040C0000040E00000600000006020000060400000606000006080000060A0000060C0000060E00000800000008020000080400000806000008080000080A0000080C0000080E00000A0000000A0200000A0400000A0600000A0800000A0A00000A0C00000A0E00000C0000000C0200000C0400000C0600000C0800000C0
310
A00000C0C00000C0E00000E0000000E0200000E0400000E0600000E0800000E0A00000E0C00000E0E00040000000400020004000400040006000400080004000A0004000C0004000E00040200000402020004020400040206000402080004020A0004020C0004020E000404000004040200040404000404060004040800040
310
40A0004040C0004040E00040600000406020004060400040606000406080004060A0004060C0004060E00040800000408020004080400040806000408080004080A0004080C0004080E00040A0000040A0200040A0400040A0600040A0800040A0A00040A0C00040A0E00040C0000040C0200040C0400040C0600040C08000
310
40C0A00040C0C00040C0E00040E0000040E0200040E0400040E0600040E0800040E0A00040E0C00040E0E00080000000800020008000400080006000800080008000A0008000C0008000E00080200000802020008020400080206000802080008020A0008020C0008020E00080400000804020008040400080406000804080
310
008040A0008040C0008040E00080600000806020008060400080606000806080008060A0008060C0008060E00080800000808020008080400080806000808080008080A0008080C0008080E00080A0000080A0200080A0400080A0600080A0800080A0A00080A0C00080A0E00080C0000080C0200080C0400080C0600080C0
310
800080C0A00080C0C00080C0E00080E0000080E0200080E0400080E0600080E0800080E0A00080E0C00080E0E000C0000000C0002000C0004000C0006000C0008000C000A000C000C000C000E000C0200000C0202000C0204000C0206000C0208000C020A000C020C000C020E000C0400000C0402000C0404000C0406000C0
310
408000C040A000C040C000C040E000C0600000C0602000C0604000C0606000C0608000C060A000C060C000C060E000C0800000C0802000C0804000C0806000C0808000C080A000C080C000C080E000C0A00000C0A02000C0A04000C0A06000C0A08000C0A0A000C0A0C000C0A0E000C0C00000C0C02000C0C04000C0C06000
310
C0C08000C0C0A000F0FBFF00A4A0A000808080000000FF0000FF000000FFFF00FF000000FF00FF00FFFF0000FFFFFF00000000000000000000000000000000000000000000000000000000000000000000000000000000000000000000000000FF000000000000000000000000000000000000000000000000000000000000
310
00FF00000000000000000000000000000000000000000000000000000000000000FF00000000000000000000000000000000000000000000000000000000000000FF00000000000000000000000000000000000000000000000000000000000000FF000000000000000000000000000000000000000000F900000000000000
310
0000FF00000000000000000000000000000000000000000000F90000000000000000FF0000000000000000000000000000000000000000000000F900000000000000FF000000000000000000000000000000000000000000000000F9000000000000FF00000000000000000000000000000000000000000000000000F90000
310
000000FF0000000000000000000000000000000000000000000000000000F900000000FF000000000000000000000000000000000000000000000000000000F9000000FF00000000000000000000000000000000000000000000000000000000F90000FF000000000000000000000000000000000000000000000000000000
310
0000F900FF000000000000000000000000000000000000000000000000000000000000F9FF00000000000000000000000000000000000000000000FFFFFFFFFFFFFFFFFFFFFFFFFFFFFFFFFFFF0000000000000000000000000000000000000000000000FFF900000000000000000000000000000000000000000000000000
310
0000000000FF00F90000000000000000000000000000000000000000000000000000000000FF0000F900000000000000000000000000000000000000000000000000000000FF000000F9000000000000000000000000000000000000000000000000000000FF00000000F90000000000000000000000000000000000000000
310
000000000000FF0000000000F900000000000000000000000000000000000000000000000000FF000000000000F9000000000000000000000000000000000000000000000000FF00000000000000F90000000000000000000000000000000000000000000000FF0000000000000000F9000000000000000000000000000000
310
00000000000000FF00000000000000000000000000000000000000000000000000000000000000FF00000000000000000000000000000000000000000000000000000000000000FF00000000000000000000000000000000000000000000000000000000000000FF0000000000000000000000000000000000000000000000
310
0000000000000000FF0000000000000000000000000000000000000000000000000000000000000000000000000000000000000000000000
102
{BLKREFS
331
3153
331
3154
331
315A
331
315B
331
3B61
331
3B62
331
3B6F
331
3B70
102
}
  0
BLOCK_RECORD
  5
3B39
330
1
100
AcDbSymbolTableRecord
100
AcDbBlockTableRecord
  2
*D3
340
0
  0
BLOCK_RECORD
  5
3B4D
330
1
100
AcDbSymbolTableRecord
100
AcDbBlockTableRecord
  2
*D4
340
0
  0
ENDTAB
  0
ENDSEC
  0
SECTION
  2
BLOCKS
  0
BLOCK
  5
20
330
1F
100
AcDbEntity
  8
0
100
AcDbBlockBegin
  2
*Model_Space
 70
     0
 10
0.0
 20
0.0
 30
0.0
  3
*Model_Space
  1

  0
ENDBLK
  5
21
330
1F
100
AcDbEntity
  8
0
100
AcDbBlockEnd
  0
BLOCK
  5
1C
330
1B
100
AcDbEntity
 67
     1
  8
0
100
AcDbBlockBegin
  2
*Paper_Space
 70
     0
 10
0.0
 20
0.0
 30
0.0
  3
*Paper_Space
  1

  0
ENDBLK
  5
1D
330
1B
100
AcDbEntity
 67
     1
  8
0
100
AcDbBlockEnd
  0
BLOCK
  5
8BD
330
8BC
100
AcDbEntity
  8
0
100
AcDbBlockBegin
  2
MAR-STRZ
 70
     0
 10
0.0
 20
0.0
 30
0.0
  3
MAR-STRZ
  1

  0
LINE
  5
8BE
330
8BC
100
AcDbEntity
  8
0
100
AcDbLine
 10
0.0
 20
2.299999999999272
 30
0.0
 11
0.0
 21
-2.299999999999272
 31
0.0
  0
LINE
  5
8BF
330
8BC
100
AcDbEntity
  8
0
 62
    10
100
AcDbLine
 10
1.5
 20
1.5
 30
0.0
 11
-1.5
 21
-1.5
 31
0.0
  0
LINE
  5
8C0
330
8BC
100
AcDbEntity
  8
0
100
AcDbLine
 10
1.399999999999636
 20
0.0
 30
0.0
 11
-1.399999999999636
 21
0.0
 31
0.0
  0
ENDBLK
  5
8C1
330
8BC
100
AcDbEntity
  8
0
100
AcDbBlockEnd
  0
BLOCK
  5
3B3A
330
3B39
100
AcDbEntity
  8
0
100
AcDbBlockBegin
  2
*D3
 70
     1
 10
0.0
 20
0.0
 30
0.0
  3
*D3
  1

  0
LINE
  5
3B60
330
3B39
100
AcDbEntity
  8
WYMIAR
370
    -2
100
AcDbLine
 10
13.93292928980404
 20
5.69988425144276
 30
0.0
 11
22.28598134171699
 21
5.69988425144276
 31
0.0
  0
INSERT
  5
3B61
330
3B39
100
AcDbEntity
  8
WYMIAR
370
    -2
100
AcDbBlockReference
  2
MAR-STRZ
 10
13.87292928980404
 20
5.69988425144276
 30
0.0
 41
0.06
 42
0.06
 43
0.06
 50
180.0
  0
INSERT
  5
3B62
330
3B39
100
AcDbEntity
  8
WYMIAR
370
    -2
100
AcDbBlockReference
  2
MAR-STRZ
 10
22.34598134171699
 20
5.69988425144276
 30
0.0
 41
0.06
 42
0.06
 43
0.06
  0
MTEXT
  5
3B63
330
3B39
100
AcDbEntity
  8
WYMIAR
100
AcDbMText
 10
18.10945531576052
 20
5.90988425144276
 30
0.0
 40
0.18
 41
0.0
 71
     5
 72
     1
  1
\A1;8.50
  7
AR 01 SWIS
 73
     1
 44
1.0
  0
POINT
  5
3B64
330
3B39
100
AcDbEntity
  8
Defpoints
 62
     0
100
AcDbPoint
 10
13.87292928980404
 20
5.073470089674371
 30
0.0
  0
POINT
  5
3B65
330
3B39
100
AcDbEntity
  8
Defpoints
 62
     0
100
AcDbPoint
 10
22.34598134171699
 20
4.437210640280506
 30
0.0
  0
POINT
  5
3B66
330
3B39
100
AcDbEntity
  8
Defpoints
 62
     0
100
AcDbPoint
 10
22.34598134171699
 20
5.69988425144276
 30
0.0
  0
ENDBLK
  5
3B3B
330
3B39
100
AcDbEntity
  8
0
100
AcDbBlockEnd
  0
BLOCK
  5
3B4E
330
3B4D
100
AcDbEntity
  8
0
100
AcDbBlockBegin
  2
*D4
 70
     1
 10
0.0
 20
0.0
 30
0.0
  3
*D4
  1

  0
LINE
  5
3B6E
330
3B4D
100
AcDbEntity
  8
WYMIAR
370
    -2
100
AcDbLine
 10
13.07170979394782
 20
5.013470089674371
 30
0.0
 11
13.07170979394782
 21
-0.3243883612489389
 31
0.0
  0
INSERT
  5
3B6F
330
3B4D
100
AcDbEntity
  8
WYMIAR
370
    -2
100
AcDbBlockReference
  2
MAR-STRZ
 10
13.07170979394782
 20
5.073470089674371
 30
0.0
 41
0.06
 42
0.06
 43
0.06
 50
90.0
  0
INSERT
  5
3B70
330
3B4D
100
AcDbEntity
  8
WYMIAR
370
    -2
100
AcDbBlockReference
  2
MAR-STRZ
 10
13.07170979394782
 20
-0.3843883612489389
 30
0.0
 41
0.06
 42
0.06
 43
0.06
 50
270.0
  0
MTEXT
  5
3B71
330
3B4D
100
AcDbEntity
  8
WYMIAR
100
AcDbMText
 10
12.86170979394781
 20
2.344540864212718
 30
0.0
 40
0.18
 41
0.0
 71
     5
 72
     1
  1
\A1;5.50
  7
AR 01 SWIS
 11
0.0000000000000001
 21
1.0
 31
0.0
 73
     1
 44
1.0
  0
POINT
  5
3B72
330
3B4D
100
AcDbEntity
  8
Defpoints
 62
     0
100
AcDbPoint
 10
13.87292928980404
 20
5.073470089674371
 30
0.0
  0
POINT
  5
3B73
330
3B4D
100
AcDbEntity
  8
Defpoints
 62
     0
100
AcDbPoint
 10
16.94598134171698
 20
-0.3843883612489401
 30
0.0
  0
POINT
  5
3B74
330
3B4D
100
AcDbEntity
  8
Defpoints
 62
     0
100
AcDbPoint
 10
13.07170979394782
 20
-0.3843883612489389
 30
0.0
  0
ENDBLK
  5
3B4F
330
3B4D
100
AcDbEntity
  8
0
100
AcDbBlockEnd
  0
ENDSEC
  0
SECTION
  2
ENTITIES
  0
LINE
  5
38DD
330
1F
100
AcDbEntity
  8
0
100
AcDbLine
 10
18.745981341717
 20
2.637210640280512
 30
0.0
 11
16.745981341717
 21
2.637210640280514
 31
0.0
  0
LINE
  5
38DE
330
1F
100
AcDbEntity
  8
0
100
AcDbLine
 10
16.745981341717
 20
2.637210640280514
 30
0.0
 11
16.745981341717
 21
2.537210640280513
 31
0.0
  0
LINE
  5
38DF
330
1F
100
AcDbEntity
  8
0
100
AcDbLine
 10
17.72241648521238
 20
2.592787047193912
 30
0.0
 11
17.70612549007849
 21
2.592787047193912
 31
0.0
  0
LINE
  5
38E0
330
1F
100
AcDbEntity
  8
0
100
AcDbLine
 10
17.72241648521238
 20
2.58374464719391
 30
0.0
 11
17.70612549007849
 21
2.58374464719391
 31
0.0
  0
LINE
  5
38E1
330
1F
100
AcDbEntity
  8
0
100
AcDbLine
 10
17.19087623273004
 20
2.589663243405848
 30
0.0
 11
17.17458523759615
 21
2.589663243405848
 31
0.0
  0
LINE
  5
38E2
330
1F
100
AcDbEntity
  8
0
100
AcDbLine
 10
17.19087623273004
 20
2.580620843405846
 30
0.0
 11
17.17458523759615
 21
2.580620843405846
 31
0.0
  0
LINE
  5
38E3
330
1F
100
AcDbEntity
  8
0
100
AcDbLine
 10
18.2414184102698
 20
2.588567854676444
 30
0.0
 11
18.22512741513591
 21
2.588567854676444
 31
0.0
  0
LINE
  5
38E4
330
1F
100
AcDbEntity
  8
0
100
AcDbLine
 10
18.2414184102698
 20
2.579525454676442
 30
0.0
 11
18.22512741513591
 21
2.579525454676442
 31
0.0
  0
LINE
  5
38E5
330
1F
100
AcDbEntity
  8
0
100
AcDbLine
 10
16.745981341717
 20
2.537210640280513
 30
0.0
 11
16.745981341717
 21
2.437210640280515
 31
0.0
  0
LINE
  5
38E6
330
1F
100
AcDbEntity
  8
0
100
AcDbLine
 10
16.745981341717
 20
2.437210640280515
 30
0.0
 11
16.845981341717
 21
2.437210640280515
 31
0.0
  0
LINE
  5
38E7
330
1F
100
AcDbEntity
  8
0
100
AcDbLine
 10
16.845981341717
 20
2.437210640280515
 30
0.0
 11
16.845981341717
 21
2.537210640280513
 31
0.0
  0
LINE
  5
38E8
330
1F
100
AcDbEntity
  8
0
100
AcDbLine
 10
15.90254323622212
 20
2.167842794489018
 30
0.0
 11
15.90254323622212
 21
2.080657176444198
 31
0.0
  0
LINE
  5
38E9
330
1F
100
AcDbEntity
  8
0
100
AcDbLine
 10
15.78773626301308
 20
2.080657176444194
 30
0.0
 11
15.90254323622212
 21
2.080657176444198
 31
0.0
  0
LINE
  5
38EA
330
1F
100
AcDbEntity
  8
0
100
AcDbLine
 10
15.78348626301301
 20
2.67383222565915
 30
0.0
 11
15.90679323622205
 21
2.673832225659154
 31
0.0
  0
LINE
  5
38EB
330
1F
100
AcDbEntity
  8
0
100
AcDbLine
 10
15.90679323622205
 20
2.666067654306079
 30
0.0
 11
15.90679323622205
 21
2.673832225659154
 31
0.0
  0
LINE
  5
38EC
330
1F
100
AcDbEntity
  8
0
100
AcDbLine
 10
15.78348626301301
 20
2.666067654306075
 30
0.0
 11
15.78348626301301
 21
2.67383222565915
 31
0.0
  0
LINE
  5
38ED
330
1F
100
AcDbEntity
  8
0
100
AcDbLine
 10
15.78742032961762
 20
2.131743731811255
 30
0.0
 11
15.78742032961762
 21
2.084721613406966
 31
0.0
  0
LINE
  5
38EE
330
1F
100
AcDbEntity
  8
0
100
AcDbLine
 10
15.90445614961762
 20
2.131743731811255
 30
0.0
 11
15.90445614961762
 21
2.084721613406966
 31
0.0
  0
LINE
  5
38EF
330
1F
100
AcDbEntity
  8
0
100
AcDbLine
 10
15.77559852961762
 20
2.131743731811255
 30
0.0
 11
15.78742032961762
 21
2.131743731811255
 31
0.0
  0
LINE
  5
38F0
330
1F
100
AcDbEntity
  8
0
100
AcDbLine
 10
15.90445614961762
 20
2.167842794489018
 30
0.0
 11
15.90445614961762
 21
2.131743731811255
 31
0.0
  0
LINE
  5
38F1
330
1F
100
AcDbEntity
  8
0
100
AcDbLine
 10
15.91627794961762
 20
2.131743731811255
 30
0.0
 11
15.91627794961762
 21
2.084721613406966
 31
0.0
  0
LINE
  5
38F2
330
1F
100
AcDbEntity
  8
0
100
AcDbLine
 10
15.77559852961762
 20
2.232711572062918
 30
0.0
 11
15.78742032961762
 21
2.232711572062918
 31
0.0
  0
LINE
  5
38F3
330
1F
100
AcDbEntity
  8
0
100
AcDbLine
 10
15.90445614961762
 20
2.084721613406966
 30
0.0
 11
15.91627794961762
 21
2.084721613406966
 31
0.0
  0
LINE
  5
38F4
330
1F
100
AcDbEntity
  8
0
100
AcDbLine
 10
15.77559852961762
 20
2.084721613406966
 30
0.0
 11
15.78742032961762
 21
2.084721613406966
 31
0.0
  0
LINE
  5
38F5
330
1F
100
AcDbEntity
  8
0
100
AcDbLine
 10
15.77559852961762
 20
2.131743731811255
 30
0.0
 11
15.77559852961762
 21
2.084721613406966
 31
0.0
  0
LINE
  5
38F6
330
1F
100
AcDbEntity
  8
0
100
AcDbLine
 10
15.90445614961762
 20
2.131743731811255
 30
0.0
 11
15.91627794961762
 21
2.131743731811255
 31
0.0
  0
LINE
  5
38F7
330
1F
100
AcDbEntity
  8
0
100
AcDbLine
 10
15.91627794961762
 20
2.181928510776863
 30
0.0
 11
15.92809974961762
 21
2.181928510776863
 31
0.0
  0
LINE
  5
38F8
330
1F
100
AcDbEntity
  8
0
100
AcDbLine
 10
15.91627794961762
 20
2.153389647736108
 30
0.0
 11
15.92809974961762
 21
2.153389647736108
 31
0.0
  0
LINE
  5
38F9
330
1F
100
AcDbEntity
  8
0
100
AcDbLine
 10
15.91627794961762
 20
2.13319449237175
 30
0.0
 11
15.92809974961762
 21
2.13319449237175
 31
0.0
  0
LINE
  5
38FA
330
1F
100
AcDbEntity
  8
0
100
AcDbLine
 10
15.76377672961762
 20
2.181928510776863
 30
0.0
 11
15.77559852961762
 21
2.181928510776863
 31
0.0
  0
LINE
  5
38FB
330
1F
100
AcDbEntity
  8
0
100
AcDbLine
 10
15.76377672961762
 20
2.153389647736108
 30
0.0
 11
15.77559852961762
 21
2.153389647736108
 31
0.0
  0
LINE
  5
38FC
330
1F
100
AcDbEntity
  8
0
100
AcDbLine
 10
15.76377672961762
 20
2.133194492371746
 30
0.0
 11
15.77559852961762
 21
2.133194492371746
 31
0.0
  0
LINE
  5
38FD
330
1F
100
AcDbEntity
  8
0
100
AcDbLine
 10
16.63043219946174
 20
2.080657176444198
 30
0.0
 11
16.74523917267078
 21
2.080657176444201
 31
0.0
  0
LINE
  5
38FE
330
1F
100
AcDbEntity
  8
0
100
AcDbLine
 10
16.63043219946173
 20
2.23304909374081
 30
0.0
 11
16.63043219946173
 21
2.272936180202151
 31
0.0
  0
LINE
  5
38FF
330
1F
100
AcDbEntity
  8
0
100
AcDbLine
 10
16.63043219946172
 20
2.31293618020215
 30
0.0
 11
16.63043219946172
 21
2.354205360364343
 31
0.0
  0
LINE
  5
3900
330
1F
100
AcDbEntity
  8
0
100
AcDbLine
 10
16.63043219946172
 20
2.394205360364342
 30
0.0
 11
16.63043219946169
 21
2.425487086647976
 31
0.0
  0
LINE
  5
3901
330
1F
100
AcDbEntity
  8
0
100
AcDbLine
 10
16.62618219946167
 20
2.673832225659158
 30
0.0
 11
16.74948917267071
 21
2.673832225659158
 31
0.0
  0
LINE
  5
3902
330
1F
100
AcDbEntity
  8
0
100
AcDbLine
 10
16.74948917267071
 20
2.666067654306083
 30
0.0
 11
16.74948917267071
 21
2.673832225659158
 31
0.0
  0
LINE
  5
3903
330
1F
100
AcDbEntity
  8
0
100
AcDbLine
 10
16.62618219946167
 20
2.666067654306079
 30
0.0
 11
16.62618219946167
 21
2.673832225659158
 31
0.0
  0
LINE
  5
3904
330
1F
100
AcDbEntity
  8
0
100
AcDbLine
 10
16.63011626606628
 20
2.131743731811258
 30
0.0
 11
16.63011626606628
 21
2.084721613406969
 31
0.0
  0
LINE
  5
3905
330
1F
100
AcDbEntity
  8
0
100
AcDbLine
 10
16.74715208606627
 20
2.131743731811258
 30
0.0
 11
16.74715208606627
 21
2.084721613406969
 31
0.0
  0
LINE
  5
3906
330
1F
100
AcDbEntity
  8
0
100
AcDbLine
 10
16.61829446606628
 20
2.131743731811258
 30
0.0
 11
16.63011626606628
 21
2.131743731811258
 31
0.0
  0
LINE
  5
3907
330
1F
100
AcDbEntity
  8
0
100
AcDbLine
 10
16.63011626606628
 20
2.167842794489018
 30
0.0
 11
16.63011626606628
 21
2.131743731811258
 31
0.0
  0
LINE
  5
3908
330
1F
100
AcDbEntity
  8
0
100
AcDbLine
 10
16.74715208606627
 20
2.232711572062921
 30
0.0
 11
16.75897388606627
 21
2.232711572062921
 31
0.0
  0
LINE
  5
3909
330
1F
100
AcDbEntity
  8
0
100
AcDbLine
 10
16.75897388606627
 20
2.131743731811258
 30
0.0
 11
16.75897388606627
 21
2.084721613406969
 31
0.0
  0
LINE
  5
390A
330
1F
100
AcDbEntity
  8
0
100
AcDbLine
 10
16.74715208606627
 20
2.084721613406969
 30
0.0
 11
16.75897388606627
 21
2.084721613406969
 31
0.0
  0
LINE
  5
390B
330
1F
100
AcDbEntity
  8
0
100
AcDbLine
 10
16.61829446606628
 20
2.084721613406969
 30
0.0
 11
16.63011626606628
 21
2.084721613406969
 31
0.0
  0
LINE
  5
390C
330
1F
100
AcDbEntity
  8
0
100
AcDbLine
 10
16.61829446606628
 20
2.131743731811258
 30
0.0
 11
16.61829446606628
 21
2.084721613406969
 31
0.0
  0
LINE
  5
390D
330
1F
100
AcDbEntity
  8
0
100
AcDbLine
 10
16.74715208606627
 20
2.131743731811258
 30
0.0
 11
16.75897388606627
 21
2.131743731811258
 31
0.0
  0
LINE
  5
390E
330
1F
100
AcDbEntity
  8
0
100
AcDbLine
 10
16.75897388606627
 20
2.181928510776867
 30
0.0
 11
16.77079568606627
 21
2.181928510776867
 31
0.0
  0
LINE
  5
390F
330
1F
100
AcDbEntity
  8
0
100
AcDbLine
 10
16.75897388606627
 20
2.153389647736116
 30
0.0
 11
16.77079568606627
 21
2.153389647736116
 31
0.0
  0
LINE
  5
3910
330
1F
100
AcDbEntity
  8
0
100
AcDbLine
 10
16.75897388606627
 20
2.133194492371753
 30
0.0
 11
16.77079568606627
 21
2.133194492371753
 31
0.0
  0
LINE
  5
3911
330
1F
100
AcDbEntity
  8
0
100
AcDbLine
 10
16.60647266606628
 20
2.181928510776867
 30
0.0
 11
16.61726113287855
 21
2.181928510776867
 31
0.0
  0
LINE
  5
3912
330
1F
100
AcDbEntity
  8
0
100
AcDbLine
 10
16.60647266606628
 20
2.153389647736116
 30
0.0
 11
16.61829446606628
 21
2.153389647736116
 31
0.0
  0
LINE
  5
3913
330
1F
100
AcDbEntity
  8
0
100
AcDbLine
 10
16.60647266606628
 20
2.133194492371753
 30
0.0
 11
16.61829446606628
 21
2.133194492371753
 31
0.0
  0
LINE
  5
3914
330
1F
100
AcDbEntity
  8
0
100
AcDbLine
 10
15.67292928980404
 20
3.158786124079572
 30
0.0
 11
15.78773626301308
 21
3.158786124079572
 31
0.0
  0
LINE
  5
3915
330
1F
100
AcDbEntity
  8
0
100
AcDbLine
 10
15.67292928980404
 20
3.158786124079572
 30
0.0
 11
15.67292928980397
 21
2.573375646217691
 31
0.0
  0
LINE
  5
3916
330
1F
100
AcDbEntity
  8
0
100
AcDbLine
 10
15.66867928980397
 20
2.565611074864616
 30
0.0
 11
15.79198626301301
 21
2.565611074864616
 31
0.0
  0
LINE
  5
3917
330
1F
100
AcDbEntity
  8
0
100
AcDbLine
 10
15.79198626301301
 20
2.573375646217691
 30
0.0
 11
15.79198626301301
 21
2.565611074864616
 31
0.0
  0
LINE
  5
3918
330
1F
100
AcDbEntity
  8
0
100
AcDbLine
 10
15.66867928980397
 20
2.573375646217691
 30
0.0
 11
15.66867928980397
 21
2.565611074864616
 31
0.0
  0
LINE
  5
3919
330
1F
100
AcDbEntity
  8
0
100
AcDbLine
 10
15.67261335640858
 20
3.107699568712511
 30
0.0
 11
15.67261335640858
 21
3.154721687116801
 31
0.0
  0
LINE
  5
391A
330
1F
100
AcDbEntity
  8
0
100
AcDbLine
 10
15.78964917640858
 20
3.107699568712511
 30
0.0
 11
15.78964917640858
 21
3.154721687116801
 31
0.0
  0
LINE
  5
391B
330
1F
100
AcDbEntity
  8
0
100
AcDbLine
 10
15.66079155640858
 20
3.107699568712511
 30
0.0
 11
15.67261335640858
 21
3.107699568712511
 31
0.0
  0
LINE
  5
391C
330
1F
100
AcDbEntity
  8
0
100
AcDbLine
 10
15.78964917640858
 20
3.066537964269517
 30
0.0
 11
15.78964917640858
 21
3.107699568712511
 31
0.0
  0
LINE
  5
391D
330
1F
100
AcDbEntity
  8
0
100
AcDbLine
 10
15.80147097640858
 20
3.107699568712511
 30
0.0
 11
15.80147097640858
 21
3.154721687116801
 31
0.0
  0
LINE
  5
391E
330
1F
100
AcDbEntity
  8
0
100
AcDbLine
 10
15.66079155640858
 20
3.006731728460849
 30
0.0
 11
15.67261335640858
 21
3.006731728460849
 31
0.0
  0
LINE
  5
391F
330
1F
100
AcDbEntity
  8
0
100
AcDbLine
 10
15.78964917640858
 20
3.154721687116801
 30
0.0
 11
15.80147097640858
 21
3.154721687116801
 31
0.0
  0
LINE
  5
3920
330
1F
100
AcDbEntity
  8
0
100
AcDbLine
 10
15.76047562301312
 20
3.150657250154029
 30
0.0
 11
15.77229742301312
 21
3.150657250154029
 31
0.0
  0
LINE
  5
3921
330
1F
100
AcDbEntity
  8
0
100
AcDbLine
 10
15.66079155640858
 20
3.107699568712511
 30
0.0
 11
15.66079155640858
 21
3.154721687116801
 31
0.0
  0
LINE
  5
3922
330
1F
100
AcDbEntity
  8
0
100
AcDbLine
 10
15.78964917640858
 20
3.107699568712511
 30
0.0
 11
15.80147097640858
 21
3.107699568712511
 31
0.0
  0
LINE
  5
3923
330
1F
100
AcDbEntity
  8
0
100
AcDbLine
 10
15.80147097640858
 20
3.057514789746907
 30
0.0
 11
15.81329277640858
 21
3.057514789746907
 31
0.0
  0
LINE
  5
3924
330
1F
100
AcDbEntity
  8
0
100
AcDbLine
 10
15.80147097640858
 20
3.086053652787658
 30
0.0
 11
15.81329277640858
 21
3.086053652787658
 31
0.0
  0
LINE
  5
3925
330
1F
100
AcDbEntity
  8
0
100
AcDbLine
 10
15.80147097640858
 20
3.10624880815202
 30
0.0
 11
15.81329277640858
 21
3.10624880815202
 31
0.0
  0
LINE
  5
3926
330
1F
100
AcDbEntity
  8
0
100
AcDbLine
 10
15.64896975640858
 20
3.057514789746907
 30
0.0
 11
15.66079155640858
 21
3.057514789746907
 31
0.0
  0
LINE
  5
3927
330
1F
100
AcDbEntity
  8
0
100
AcDbLine
 10
15.64896975640858
 20
3.086053652787658
 30
0.0
 11
15.66079155640858
 21
3.086053652787658
 31
0.0
  0
LINE
  5
3928
330
1F
100
AcDbEntity
  8
0
100
AcDbLine
 10
15.64896975640858
 20
3.10624880815202
 30
0.0
 11
15.66079155640858
 21
3.10624880815202
 31
0.0
  0
LINE
  5
3929
330
1F
100
AcDbEntity
  8
0
100
AcDbLine
 10
16.51562522625269
 20
3.158786124079579
 30
0.0
 11
16.63043219946174
 21
3.158786124079577
 31
0.0
  0
LINE
  5
392A
330
1F
100
AcDbEntity
  8
0
100
AcDbLine
 10
16.51137522625262
 20
2.565611074864623
 30
0.0
 11
16.63468219946167
 21
2.565611074864623
 31
0.0
  0
LINE
  5
392B
330
1F
100
AcDbEntity
  8
0
100
AcDbLine
 10
16.63468219946167
 20
2.573375646217698
 30
0.0
 11
16.63468219946167
 21
2.565611074864623
 31
0.0
  0
LINE
  5
392C
330
1F
100
AcDbEntity
  8
0
100
AcDbLine
 10
16.51137522625262
 20
2.573375646217698
 30
0.0
 11
16.51137522625262
 21
2.565611074864623
 31
0.0
  0
LINE
  5
392D
330
1F
100
AcDbEntity
  8
0
100
AcDbLine
 10
16.51530929285723
 20
3.107699568712519
 30
0.0
 11
16.51530929285723
 21
3.154721687116808
 31
0.0
  0
LINE
  5
392E
330
1F
100
AcDbEntity
  8
0
100
AcDbLine
 10
16.63234511285723
 20
3.107699568712517
 30
0.0
 11
16.63234511285723
 21
3.154721687116806
 31
0.0
  0
LINE
  5
392F
330
1F
100
AcDbEntity
  8
0
100
AcDbLine
 10
16.50348749285723
 20
3.107699568712519
 30
0.0
 11
16.51530929285723
 21
3.107699568712519
 31
0.0
  0
LINE
  5
3930
330
1F
100
AcDbEntity
  8
0
100
AcDbLine
 10
16.51530929285723
 20
3.066537964269517
 30
0.0
 11
16.51530929285723
 21
3.107699568712519
 31
0.0
  0
LINE
  5
3931
330
1F
100
AcDbEntity
  8
0
100
AcDbLine
 10
16.63234511285723
 20
3.006731728460854
 30
0.0
 11
16.64416691285723
 21
3.006731728460854
 31
0.0
  0
LINE
  5
3932
330
1F
100
AcDbEntity
  8
0
100
AcDbLine
 10
16.64416691285723
 20
3.107699568712517
 30
0.0
 11
16.64416691285723
 21
3.154721687116806
 31
0.0
  0
LINE
  5
3933
330
1F
100
AcDbEntity
  8
0
100
AcDbLine
 10
16.63234511285723
 20
3.154721687116806
 30
0.0
 11
16.64416691285723
 21
3.154721687116806
 31
0.0
  0
LINE
  5
3934
330
1F
100
AcDbEntity
  8
0
100
AcDbLine
 10
16.50348749285723
 20
3.154721687116808
 30
0.0
 11
16.51530929285723
 21
3.154721687116808
 31
0.0
  0
LINE
  5
3935
330
1F
100
AcDbEntity
  8
0
100
AcDbLine
 10
16.50348749285723
 20
3.107699568712519
 30
0.0
 11
16.50348749285723
 21
3.154721687116808
 31
0.0
  0
LINE
  5
3936
330
1F
100
AcDbEntity
  8
0
100
AcDbLine
 10
16.63234511285723
 20
3.107699568712517
 30
0.0
 11
16.64416691285723
 21
3.107699568712517
 31
0.0
  0
LINE
  5
3937
330
1F
100
AcDbEntity
  8
0
100
AcDbLine
 10
16.64416691285723
 20
3.057514789746912
 30
0.0
 11
16.65598871285723
 21
3.057514789746912
 31
0.0
  0
LINE
  5
3938
330
1F
100
AcDbEntity
  8
0
100
AcDbLine
 10
16.64416691285723
 20
3.086053652787663
 30
0.0
 11
16.65598871285723
 21
3.086053652787663
 31
0.0
  0
LINE
  5
3939
330
1F
100
AcDbEntity
  8
0
100
AcDbLine
 10
16.64416691285723
 20
3.106248808152026
 30
0.0
 11
16.65598871285723
 21
3.106248808152026
 31
0.0
  0
LINE
  5
393A
330
1F
100
AcDbEntity
  8
0
100
AcDbLine
 10
16.49166569285723
 20
3.057514789746914
 30
0.0
 11
16.50245415966951
 21
3.057514789746914
 31
0.0
  0
LINE
  5
393B
330
1F
100
AcDbEntity
  8
0
100
AcDbLine
 10
16.49166569285723
 20
3.086053652787665
 30
0.0
 11
16.50348749285723
 21
3.086053652787665
 31
0.0
  0
LINE
  5
393C
330
1F
100
AcDbEntity
  8
0
100
AcDbLine
 10
16.49166569285723
 20
3.106248808152027
 30
0.0
 11
16.50348749285723
 21
3.106248808152027
 31
0.0
  0
LINE
  5
393D
330
1F
100
AcDbEntity
  8
0
100
AcDbLine
 10
16.63018747551111
 20
2.19304909374081
 30
0.0
 11
16.63043219946172
 21
2.19304909374081
 31
0.0
  0
LINE
  5
393E
330
1F
100
AcDbEntity
  8
0
100
AcDbLine
 10
15.91546957885469
 20
2.233049093740824
 30
0.0
 11
16.61799628477693
 21
2.233049093740817
 31
0.0
  0
LINE
  5
393F
330
1F
100
AcDbEntity
  8
0
100
AcDbLine
 10
16.63018747551111
 20
2.23304909374081
 30
0.0
 11
16.63043219946173
 21
2.23304909374081
 31
0.0
  0
LINE
  5
3940
330
1F
100
AcDbEntity
  8
0
100
AcDbLine
 10
15.90254323622212
 20
2.199677537036635
 30
0.0
 11
15.91546957885469
 21
2.199677537036635
 31
0.0
  0
LINE
  5
3941
330
1F
100
AcDbEntity
  8
0
100
AcDbLine
 10
15.91546957885469
 20
2.232655880987373
 30
0.0
 11
15.92839592148725
 21
2.232655880987373
 31
0.0
  0
LINE
  5
3942
330
1F
100
AcDbEntity
  8
0
100
AcDbLine
 10
15.91546957885469
 20
2.212655880987373
 30
0.0
 11
15.92839592148725
 21
2.212655880987373
 31
0.0
  0
LINE
  5
3943
330
1F
100
AcDbEntity
  8
0
100
AcDbLine
 10
16.61726113287855
 20
2.212655880987373
 30
0.0
 11
16.60433479024598
 21
2.212655880987373
 31
0.0
  0
LINE
  5
3944
330
1F
100
AcDbEntity
  8
0
100
AcDbLine
 10
16.61726113287855
 20
2.192209176424277
 30
0.0
 11
16.60433479024598
 21
2.192209176424277
 31
0.0
  0
LINE
  5
3945
330
1F
100
AcDbEntity
  8
0
100
AcDbLine
 10
16.61726113287855
 20
2.232655880987376
 30
0.0
 11
16.60433479024598
 21
2.232655880987376
 31
0.0
  0
LINE
  5
3946
330
1F
100
AcDbEntity
  8
0
100
AcDbLine
 10
16.63018747551111
 20
2.19304909374081
 30
0.0
 11
16.63018747551111
 21
2.167842794489018
 31
0.0
  0
LINE
  5
3947
330
1F
100
AcDbEntity
  8
0
100
AcDbLine
 10
16.61726113287855
 20
2.247729880950355
 30
0.0
 11
16.61726113287855
 21
2.23304909374081
 31
0.0
  0
LINE
  5
3948
330
1F
100
AcDbEntity
  8
0
100
AcDbLine
 10
16.63018747551111
 20
2.199677537036631
 30
0.0
 11
16.61726113287855
 21
2.199677537036631
 31
0.0
  0
LINE
  5
3949
330
1F
100
AcDbEntity
  8
0
100
AcDbLine
 10
16.6301874755111
 20
2.272936180202151
 30
0.0
 11
16.63043219946173
 21
2.272936180202151
 31
0.0
  0
LINE
  5
394A
330
1F
100
AcDbEntity
  8
0
100
AcDbLine
 10
15.91546957885467
 20
2.312936180202161
 30
0.0
 11
16.61763096985005
 21
2.312936180202154
 31
0.0
  0
LINE
  5
394B
330
1F
100
AcDbEntity
  8
0
100
AcDbLine
 10
16.6301874755111
 20
2.31293618020215
 30
0.0
 11
16.63043219946172
 21
2.31293618020215
 31
0.0
  0
LINE
  5
394C
330
1F
100
AcDbEntity
  8
0
100
AcDbLine
 10
15.90254323622212
 20
2.247729880950355
 30
0.0
 11
15.91546957885467
 21
2.247729880950355
 31
0.0
  0
LINE
  5
394D
330
1F
100
AcDbEntity
  8
0
100
AcDbLine
 10
15.9025432362221
 20
2.279564623497972
 30
0.0
 11
15.91546957885467
 21
2.279564623497972
 31
0.0
  0
LINE
  5
394E
330
1F
100
AcDbEntity
  8
0
100
AcDbLine
 10
15.91546957885467
 20
2.312542967448713
 30
0.0
 11
15.92839592148724
 21
2.312542967448713
 31
0.0
  0
LINE
  5
394F
330
1F
100
AcDbEntity
  8
0
100
AcDbLine
 10
15.91546957885467
 20
2.292542967448714
 30
0.0
 11
15.92839592148724
 21
2.292542967448714
 31
0.0
  0
LINE
  5
3950
330
1F
100
AcDbEntity
  8
0
100
AcDbLine
 10
15.91546957885467
 20
2.272096262885614
 30
0.0
 11
15.92839592148724
 21
2.272096262885614
 31
0.0
  0
LINE
  5
3951
330
1F
100
AcDbEntity
  8
0
100
AcDbLine
 10
16.61726113287854
 20
2.292542967448714
 30
0.0
 11
16.60433479024597
 21
2.292542967448714
 31
0.0
  0
LINE
  5
3952
330
1F
100
AcDbEntity
  8
0
100
AcDbLine
 10
16.61726113287854
 20
2.272096262885614
 30
0.0
 11
16.60433479024597
 21
2.272096262885614
 31
0.0
  0
LINE
  5
3953
330
1F
100
AcDbEntity
  8
0
100
AcDbLine
 10
16.61726113287854
 20
2.312542967448713
 30
0.0
 11
16.60433479024597
 21
2.312542967448713
 31
0.0
  0
LINE
  5
3954
330
1F
100
AcDbEntity
  8
0
100
AcDbLine
 10
16.61726113287853
 20
2.328999061112547
 30
0.0
 11
16.61726113287853
 21
2.31293618020215
 31
0.0
  0
LINE
  5
3955
330
1F
100
AcDbEntity
  8
0
100
AcDbLine
 10
16.6301874755111
 20
2.247729880950355
 30
0.0
 11
16.61726113287855
 21
2.247729880950355
 31
0.0
  0
LINE
  5
3956
330
1F
100
AcDbEntity
  8
0
100
AcDbLine
 10
16.6301874755111
 20
2.279564623497972
 30
0.0
 11
16.61726113287853
 21
2.279564623497972
 31
0.0
  0
LINE
  5
3957
330
1F
100
AcDbEntity
  8
0
100
AcDbLine
 10
16.6301874755111
 20
2.354205360364343
 30
0.0
 11
16.63043219946172
 21
2.354205360364343
 31
0.0
  0
LINE
  5
3958
330
1F
100
AcDbEntity
  8
0
100
AcDbLine
 10
16.6301874755111
 20
2.394205360364342
 30
0.0
 11
16.63043219946172
 21
2.394205360364342
 31
0.0
  0
LINE
  5
3959
330
1F
100
AcDbEntity
  8
0
100
AcDbLine
 10
15.9025432362221
 20
2.328999061112547
 30
0.0
 11
15.91546957885466
 21
2.328999061112547
 31
0.0
  0
LINE
  5
395A
330
1F
100
AcDbEntity
  8
0
100
AcDbLine
 10
15.90254323622209
 20
2.360833803660163
 30
0.0
 11
15.91546957885466
 21
2.360833803660163
 31
0.0
  0
LINE
  5
395B
330
1F
100
AcDbEntity
  8
0
100
AcDbLine
 10
15.91546957885466
 20
2.393812147610905
 30
0.0
 11
15.92839592148722
 21
2.393812147610905
 31
0.0
  0
LINE
  5
395C
330
1F
100
AcDbEntity
  8
0
100
AcDbLine
 10
15.91546957885466
 20
2.373812147610905
 30
0.0
 11
15.92839592148722
 21
2.373812147610905
 31
0.0
  0
LINE
  5
395D
330
1F
100
AcDbEntity
  8
0
100
AcDbLine
 10
15.91546957885466
 20
2.353365443047806
 30
0.0
 11
15.92839592148722
 21
2.353365443047806
 31
0.0
  0
LINE
  5
395E
330
1F
100
AcDbEntity
  8
0
100
AcDbLine
 10
16.61726113287853
 20
2.373812147610905
 30
0.0
 11
16.60433479024596
 21
2.373812147610905
 31
0.0
  0
LINE
  5
395F
330
1F
100
AcDbEntity
  8
0
100
AcDbLine
 10
16.61726113287853
 20
2.353365443047806
 30
0.0
 11
16.60433479024596
 21
2.353365443047806
 31
0.0
  0
LINE
  5
3960
330
1F
100
AcDbEntity
  8
0
100
AcDbLine
 10
16.61726113287853
 20
2.393812147610905
 30
0.0
 11
16.60433479024596
 21
2.393812147610905
 31
0.0
  0
LINE
  5
3961
330
1F
100
AcDbEntity
  8
0
100
AcDbLine
 10
16.61726113287853
 20
2.409881042850916
 30
0.0
 11
16.61726113287853
 21
2.394205360364342
 31
0.0
  0
LINE
  5
3962
330
1F
100
AcDbEntity
  8
0
100
AcDbLine
 10
16.6301874755111
 20
2.328999061112547
 30
0.0
 11
16.61726113287853
 21
2.328999061112547
 31
0.0
  0
LINE
  5
3963
330
1F
100
AcDbEntity
  8
0
100
AcDbLine
 10
16.6301874755111
 20
2.360833803660163
 30
0.0
 11
16.61726113287853
 21
2.360833803660163
 31
0.0
  0
LINE
  5
3964
330
1F
100
AcDbEntity
  8
0
100
AcDbLine
 10
15.91546957885465
 20
2.475087342102721
 30
0.0
 11
16.51137522625262
 21
2.475087342102714
 31
0.0
  0
LINE
  5
3965
330
1F
100
AcDbEntity
  8
0
100
AcDbLine
 10
15.91546957885465
 20
2.496773557497007
 30
0.0
 11
15.91546957885465
 21
2.475087342102721
 31
0.0
  0
LINE
  5
3966
330
1F
100
AcDbEntity
  8
0
100
AcDbLine
 10
15.90254323622209
 20
2.409881042850916
 30
0.0
 11
15.91546957885465
 21
2.409881042850916
 31
0.0
  0
LINE
  5
3967
330
1F
100
AcDbEntity
  8
0
100
AcDbLine
 10
15.90254323622209
 20
2.441715785398532
 30
0.0
 11
15.91546957885465
 21
2.441715785398532
 31
0.0
  0
LINE
  5
3968
330
1F
100
AcDbEntity
  8
0
100
AcDbLine
 10
15.90254323622209
 20
2.496773557497007
 30
0.0
 11
15.91546957885465
 21
2.496773557497007
 31
0.0
  0
LINE
  5
3969
330
1F
100
AcDbEntity
  8
0
100
AcDbLine
 10
15.91546957885465
 20
2.47469412934927
 30
0.0
 11
15.92839592148722
 21
2.47469412934927
 31
0.0
  0
LINE
  5
396A
330
1F
100
AcDbEntity
  8
0
100
AcDbLine
 10
15.91546957885466
 20
2.45469412934927
 30
0.0
 11
15.92839592148722
 21
2.45469412934927
 31
0.0
  0
LINE
  5
396B
330
1F
100
AcDbEntity
  8
0
100
AcDbLine
 10
15.91546957885465
 20
2.434247424786175
 30
0.0
 11
15.92839592148722
 21
2.434247424786175
 31
0.0
  0
LINE
  5
396C
330
1F
100
AcDbEntity
  8
0
100
AcDbLine
 10
16.63018747551109
 20
2.409881042850916
 30
0.0
 11
16.61726113287853
 21
2.409881042850916
 31
0.0
  0
LINE
  5
396D
330
1F
100
AcDbEntity
  8
0
100
AcDbLine
 10
15.91546957885464
 20
2.563603455527783
 30
0.0
 11
16.51137522625262
 21
2.563603455527776
 31
0.0
  0
LINE
  5
396E
330
1F
100
AcDbEntity
  8
0
100
AcDbLine
 10
15.91546957885464
 20
2.585289670922069
 30
0.0
 11
15.91546957885464
 21
2.563603455527783
 31
0.0
  0
LINE
  5
396F
330
1F
100
AcDbEntity
  8
0
100
AcDbLine
 10
15.90254323622207
 20
2.498397156275977
 30
0.0
 11
15.91546957885464
 21
2.498397156275977
 31
0.0
  0
LINE
  5
3970
330
1F
100
AcDbEntity
  8
0
100
AcDbLine
 10
15.90254323622207
 20
2.530231898823593
 30
0.0
 11
15.91546957885464
 21
2.530231898823593
 31
0.0
  0
LINE
  5
3971
330
1F
100
AcDbEntity
  8
0
100
AcDbLine
 10
15.90254323622207
 20
2.585289670922069
 30
0.0
 11
15.91546957885464
 21
2.585289670922069
 31
0.0
  0
LINE
  5
3972
330
1F
100
AcDbEntity
  8
0
100
AcDbLine
 10
15.91546957885464
 20
2.563210242774331
 30
0.0
 11
15.92839592148721
 21
2.563210242774331
 31
0.0
  0
LINE
  5
3973
330
1F
100
AcDbEntity
  8
0
100
AcDbLine
 10
15.91546957885464
 20
2.543210242774332
 30
0.0
 11
15.92839592148721
 21
2.543210242774332
 31
0.0
  0
LINE
  5
3974
330
1F
100
AcDbEntity
  8
0
100
AcDbLine
 10
15.91546957885464
 20
2.522763538211236
 30
0.0
 11
15.92839592148721
 21
2.522763538211236
 31
0.0
  0
LINE
  5
3975
330
1F
100
AcDbEntity
  8
0
100
AcDbLine
 10
15.90679323622205
 20
2.802821039399095
 30
0.0
 11
16.50283469733754
 21
2.802821039399098
 31
0.0
  0
LINE
  5
3976
330
1F
100
AcDbEntity
  8
0
100
AcDbLine
 10
16.51538050230204
 20
2.802821039399098
 30
0.0
 11
16.51562522625265
 21
2.802821039399098
 31
0.0
  0
LINE
  5
3977
330
1F
100
AcDbEntity
  8
0
100
AcDbLine
 10
15.90679323622205
 20
2.762821039399096
 30
0.0
 11
16.50273568275666
 21
2.762821039399099
 31
0.0
  0
LINE
  5
3978
330
1F
100
AcDbEntity
  8
0
100
AcDbLine
 10
16.51538050230204
 20
2.762821039399099
 30
0.0
 11
16.51562522625265
 21
2.762821039399099
 31
0.0
  0
LINE
  5
3979
330
1F
100
AcDbEntity
  8
0
100
AcDbLine
 10
15.78773626301304
 20
2.824499715907606
 30
0.0
 11
15.78773626301304
 21
2.813956213875801
 31
0.0
  0
LINE
  5
397A
330
1F
100
AcDbEntity
  8
0
100
AcDbLine
 10
15.78773626301304
 20
2.824499715907606
 30
0.0
 11
15.80066260564561
 21
2.824499715907606
 31
0.0
  0
LINE
  5
397B
330
1F
100
AcDbEntity
  8
0
100
AcDbLine
 10
16.50245415966947
 20
2.761509503588396
 30
0.0
 11
16.48952781703691
 21
2.761509503588396
 31
0.0
  0
LINE
  5
397C
330
1F
100
AcDbEntity
  8
0
100
AcDbLine
 10
16.50245415966948
 20
2.781509503588399
 30
0.0
 11
16.48952781703691
 21
2.781509503588399
 31
0.0
  0
LINE
  5
397D
330
1F
100
AcDbEntity
  8
0
100
AcDbLine
 10
16.51538050230204
 20
2.762821039399099
 30
0.0
 11
16.51538050230204
 21
2.737607201261525
 31
0.0
  0
LINE
  5
397E
330
1F
100
AcDbEntity
  8
0
100
AcDbLine
 10
16.51538050230204
 20
2.737607201261525
 30
0.0
 11
16.50245415966947
 21
2.737607201261525
 31
0.0
  0
LINE
  5
397F
330
1F
100
AcDbEntity
  8
0
100
AcDbLine
 10
16.51538050230204
 20
2.79266497336
 30
0.0
 11
16.50245415966947
 21
2.79266497336
 31
0.0
  0
LINE
  5
3980
330
1F
100
AcDbEntity
  8
0
100
AcDbLine
 10
16.51538050230204
 20
2.824499715907606
 30
0.0
 11
16.50245415966947
 21
2.824499715907606
 31
0.0
  0
LINE
  5
3981
330
1F
100
AcDbEntity
  8
0
100
AcDbLine
 10
16.51538050230207
 20
3.04485928776101
 30
0.0
 11
16.51562522625267
 21
3.04485928776101
 31
0.0
  0
LINE
  5
3982
330
1F
100
AcDbEntity
  8
0
100
AcDbLine
 10
15.8135889482782
 20
3.004859287761007
 30
0.0
 11
16.50333481564964
 21
3.004859287761007
 31
0.0
  0
LINE
  5
3983
330
1F
100
AcDbEntity
  8
0
100
AcDbLine
 10
16.51538050230207
 20
3.004859287761011
 30
0.0
 11
16.51562522625267
 21
3.004859287761011
 31
0.0
  0
LINE
  5
3984
330
1F
100
AcDbEntity
  8
0
100
AcDbLine
 10
15.80066260564564
 20
3.066537964269517
 30
0.0
 11
15.80066260564564
 21
3.044859287761006
 31
0.0
  0
LINE
  5
3985
330
1F
100
AcDbEntity
  8
0
100
AcDbLine
 10
15.78773626301307
 20
3.034703221721912
 30
0.0
 11
15.80066260564564
 21
3.034703221721912
 31
0.0
  0
LINE
  5
3986
330
1F
100
AcDbEntity
  8
0
100
AcDbLine
 10
15.80066260564564
 20
3.02354775195031
 30
0.0
 11
15.8135889482782
 21
3.02354775195031
 31
0.0
  0
LINE
  5
3987
330
1F
100
AcDbEntity
  8
0
100
AcDbLine
 10
15.80066260564564
 20
3.003547751950307
 30
0.0
 11
15.8135889482782
 21
3.003547751950307
 31
0.0
  0
LINE
  5
3988
330
1F
100
AcDbEntity
  8
0
100
AcDbLine
 10
16.50245415966951
 20
3.003547751950307
 30
0.0
 11
16.48952781703694
 21
3.003547751950307
 31
0.0
  0
LINE
  5
3989
330
1F
100
AcDbEntity
  8
0
100
AcDbLine
 10
16.50245415966951
 20
3.02354775195031
 30
0.0
 11
16.48952781703694
 21
3.02354775195031
 31
0.0
  0
LINE
  5
398A
330
1F
100
AcDbEntity
  8
0
100
AcDbLine
 10
16.51538050230207
 20
3.066537964269517
 30
0.0
 11
16.51538050230207
 21
3.04485928776101
 31
0.0
  0
LINE
  5
398B
330
1F
100
AcDbEntity
  8
0
100
AcDbLine
 10
16.51538050230207
 20
3.034703221721912
 30
0.0
 11
16.50245415966951
 21
3.034703221721912
 31
0.0
  0
LINE
  5
398C
330
1F
100
AcDbEntity
  8
0
100
AcDbLine
 10
15.90679323622205
 20
2.71430492597404
 30
0.0
 11
16.50261558769074
 21
2.71430492597404
 31
0.0
  0
LINE
  5
398D
330
1F
100
AcDbEntity
  8
0
100
AcDbLine
 10
16.51538050230203
 20
2.714304925974044
 30
0.0
 11
16.51562522625263
 21
2.714304925974044
 31
0.0
  0
LINE
  5
398E
330
1F
100
AcDbEntity
  8
0
100
AcDbLine
 10
15.90679323622205
 20
2.674304925974041
 30
0.0
 11
16.50251657310985
 21
2.674304925974045
 31
0.0
  0
LINE
  5
398F
330
1F
100
AcDbEntity
  8
0
100
AcDbLine
 10
16.51538050230203
 20
2.674304925974045
 30
0.0
 11
16.51562522625263
 21
2.674304925974045
 31
0.0
  0
LINE
  5
3990
330
1F
100
AcDbEntity
  8
0
100
AcDbLine
 10
16.50245415966946
 20
2.672993390163338
 30
0.0
 11
16.48952781703689
 21
2.672993390163338
 31
0.0
  0
LINE
  5
3991
330
1F
100
AcDbEntity
  8
0
100
AcDbLine
 10
16.50245415966946
 20
2.692993390163344
 30
0.0
 11
16.48952781703689
 21
2.692993390163344
 31
0.0
  0
LINE
  5
3992
330
1F
100
AcDbEntity
  8
0
100
AcDbLine
 10
16.51538050230203
 20
2.674304925974045
 30
0.0
 11
16.51538050230203
 21
2.649091087836467
 31
0.0
  0
LINE
  5
3993
330
1F
100
AcDbEntity
  8
0
100
AcDbLine
 10
16.51538050230203
 20
2.735983602482551
 30
0.0
 11
16.51538050230203
 21
2.714304925974044
 31
0.0
  0
LINE
  5
3994
330
1F
100
AcDbEntity
  8
0
100
AcDbLine
 10
16.50245415966946
 20
2.735983602482551
 30
0.0
 11
16.50245415966946
 21
2.714304925974044
 31
0.0
  0
LINE
  5
3995
330
1F
100
AcDbEntity
  8
0
100
AcDbLine
 10
16.51538050230203
 20
2.649091087836467
 30
0.0
 11
16.50245415966946
 21
2.649091087836467
 31
0.0
  0
LINE
  5
3996
330
1F
100
AcDbEntity
  8
0
100
AcDbLine
 10
16.51538050230203
 20
2.704148859934946
 30
0.0
 11
16.50245415966946
 21
2.704148859934946
 31
0.0
  0
LINE
  5
3997
330
1F
100
AcDbEntity
  8
0
100
AcDbLine
 10
16.51538050230203
 20
2.735983602482551
 30
0.0
 11
16.50245415966946
 21
2.735983602482551
 31
0.0
  0
LINE
  5
3998
330
1F
100
AcDbEntity
  8
0
100
AcDbLine
 10
15.80066260564561
 20
2.88370302113746
 30
0.0
 11
16.50303490972561
 21
2.883703021137463
 31
0.0
  0
LINE
  5
3999
330
1F
100
AcDbEntity
  8
0
100
AcDbLine
 10
16.51538050230205
 20
2.883703021137463
 30
0.0
 11
16.51562522625265
 21
2.883703021137463
 31
0.0
  0
LINE
  5
399A
330
1F
100
AcDbEntity
  8
0
100
AcDbLine
 10
15.81358894827818
 20
2.843703021137461
 30
0.0
 11
16.50293589514473
 21
2.843703021137464
 31
0.0
  0
LINE
  5
399B
330
1F
100
AcDbEntity
  8
0
100
AcDbLine
 10
16.51538050230205
 20
2.843703021137468
 30
0.0
 11
16.51562522625265
 21
2.843703021137468
 31
0.0
  0
LINE
  5
399C
330
1F
100
AcDbEntity
  8
0
100
AcDbLine
 10
15.78773626301305
 20
2.873546955098369
 30
0.0
 11
15.80066260564561
 21
2.873546955098369
 31
0.0
  0
LINE
  5
399D
330
1F
100
AcDbEntity
  8
0
100
AcDbLine
 10
15.78773626301305
 20
2.905381697645974
 30
0.0
 11
15.80066260564561
 21
2.905381697645974
 31
0.0
  0
LINE
  5
399E
330
1F
100
AcDbEntity
  8
0
100
AcDbLine
 10
15.80066260564561
 20
2.862391485326767
 30
0.0
 11
15.81358894827818
 21
2.862391485326767
 31
0.0
  0
LINE
  5
399F
330
1F
100
AcDbEntity
  8
0
100
AcDbLine
 10
15.80066260564561
 20
2.842391485326761
 30
0.0
 11
15.81358894827818
 21
2.842391485326761
 31
0.0
  0
LINE
  5
39A0
330
1F
100
AcDbEntity
  8
0
100
AcDbLine
 10
16.50245415966949
 20
2.842391485326761
 30
0.0
 11
16.48952781703692
 21
2.842391485326761
 31
0.0
  0
LINE
  5
39A1
330
1F
100
AcDbEntity
  8
0
100
AcDbLine
 10
16.50245415966949
 20
2.862391485326764
 30
0.0
 11
16.48952781703692
 21
2.862391485326764
 31
0.0
  0
LINE
  5
39A2
330
1F
100
AcDbEntity
  8
0
100
AcDbLine
 10
16.51538050230205
 20
2.873546955098365
 30
0.0
 11
16.50245415966949
 21
2.873546955098365
 31
0.0
  0
LINE
  5
39A3
330
1F
100
AcDbEntity
  8
0
100
AcDbLine
 10
16.51538050230205
 20
2.905381697645971
 30
0.0
 11
16.50245415966949
 21
2.905381697645971
 31
0.0
  0
LINE
  5
39A4
330
1F
100
AcDbEntity
  8
0
100
AcDbLine
 10
15.80066260564563
 20
2.964972201299651
 30
0.0
 11
16.50323608057092
 21
2.964972201299655
 31
0.0
  0
LINE
  5
39A5
330
1F
100
AcDbEntity
  8
0
100
AcDbLine
 10
16.51538050230206
 20
2.964972201299655
 30
0.0
 11
16.51562522625267
 21
2.964972201299655
 31
0.0
  0
LINE
  5
39A6
330
1F
100
AcDbEntity
  8
0
100
AcDbLine
 10
15.81358894827819
 20
2.924972201299652
 30
0.0
 11
16.50313706599004
 21
2.924972201299652
 31
0.0
  0
LINE
  5
39A7
330
1F
100
AcDbEntity
  8
0
100
AcDbLine
 10
16.51538050230206
 20
2.924972201299656
 30
0.0
 11
16.51562522625266
 21
2.924972201299656
 31
0.0
  0
LINE
  5
39A8
330
1F
100
AcDbEntity
  8
0
100
AcDbLine
 10
15.78773626301306
 20
2.954816135260557
 30
0.0
 11
15.80066260564563
 21
2.954816135260557
 31
0.0
  0
LINE
  5
39A9
330
1F
100
AcDbEntity
  8
0
100
AcDbLine
 10
15.78773626301307
 20
2.986650877808163
 30
0.0
 11
15.80066260564563
 21
2.986650877808163
 31
0.0
  0
LINE
  5
39AA
330
1F
100
AcDbEntity
  8
0
100
AcDbLine
 10
15.80066260564563
 20
2.943660665488955
 30
0.0
 11
15.81358894827819
 21
2.943660665488955
 31
0.0
  0
LINE
  5
39AB
330
1F
100
AcDbEntity
  8
0
100
AcDbLine
 10
15.80066260564563
 20
2.923660665488952
 30
0.0
 11
15.81358894827819
 21
2.923660665488952
 31
0.0
  0
LINE
  5
39AC
330
1F
100
AcDbEntity
  8
0
100
AcDbLine
 10
16.50245415966949
 20
2.923660665488952
 30
0.0
 11
16.48952781703692
 21
2.923660665488952
 31
0.0
  0
LINE
  5
39AD
330
1F
100
AcDbEntity
  8
0
100
AcDbLine
 10
16.50245415966949
 20
2.943660665488955
 30
0.0
 11
16.48952781703693
 21
2.943660665488955
 31
0.0
  0
LINE
  5
39AE
330
1F
100
AcDbEntity
  8
0
100
AcDbLine
 10
16.51538050230206
 20
2.954816135260557
 30
0.0
 11
16.50245415966949
 21
2.954816135260557
 31
0.0
  0
LINE
  5
39AF
330
1F
100
AcDbEntity
  8
0
100
AcDbLine
 10
16.51538050230206
 20
2.986650877808163
 30
0.0
 11
16.50245415966951
 21
2.986650877808163
 31
0.0
  0
LINE
  5
39B0
330
1F
100
AcDbEntity
  8
0
100
AcDbLine
 10
15.90254323622207
 20
2.585289670922069
 30
0.0
 11
15.90254323622205
 21
2.666067654306079
 31
0.0
  0
LINE
  5
39B1
330
1F
100
AcDbEntity
  8
0
100
AcDbLine
 10
15.90254323622205
 20
2.666067654306079
 30
0.0
 11
15.90679323622205
 21
2.666067654306079
 31
0.0
  0
LINE
  5
39B2
330
1F
100
AcDbEntity
  8
0
100
AcDbLine
 10
15.78773626301304
 20
2.813956213875801
 30
0.0
 11
15.78348626301301
 21
2.813956213875801
 31
0.0
  0
LINE
  5
39B3
330
1F
100
AcDbEntity
  8
0
100
AcDbLine
 10
16.74523917267071
 20
2.666067654306083
 30
0.0
 11
16.74948917267071
 21
2.666067654306083
 31
0.0
  0
LINE
  5
39B4
330
1F
100
AcDbEntity
  8
0
100
AcDbLine
 10
16.74948917267071
 20
2.813956213875805
 30
0.0
 11
16.63043219946169
 21
2.813956213875805
 31
0.0
  0
LINE
  5
39B5
330
1F
100
AcDbEntity
  8
0
100
AcDbLine
 10
16.63043219946169
 20
2.813956213875805
 30
0.0
 11
16.62618219946167
 21
2.813956213875805
 31
0.0
  0
LINE
  5
39B6
330
1F
100
AcDbEntity
  8
0
100
AcDbLine
 10
15.78773626301301
 20
2.573375646217691
 30
0.0
 11
15.79198626301301
 21
2.573375646217691
 31
0.0
  0
LINE
  5
39B7
330
1F
100
AcDbEntity
  8
0
100
AcDbLine
 10
15.79198626301301
 20
2.425487086647965
 30
0.0
 11
15.78773626301304
 21
2.425487086647965
 31
0.0
  0
LINE
  5
39B8
330
1F
100
AcDbEntity
  8
0
100
AcDbLine
 10
15.78773626301304
 20
2.425487086647965
 30
0.0
 11
15.66867928980397
 21
2.425487086647965
 31
0.0
  0
LINE
  5
39B9
330
1F
100
AcDbEntity
  8
0
100
AcDbLine
 10
16.51562522625269
 20
3.158786124079579
 30
0.0
 11
16.51562522625267
 21
3.04485928776101
 31
0.0
  0
LINE
  5
39BA
330
1F
100
AcDbEntity
  8
0
100
AcDbLine
 10
16.63043219946167
 20
2.573375646217698
 30
0.0
 11
16.63468219946167
 21
2.573375646217698
 31
0.0
  0
LINE
  5
39BB
330
1F
100
AcDbEntity
  8
0
100
AcDbLine
 10
16.63468219946167
 20
2.425487086647976
 30
0.0
 11
16.63043219946169
 21
2.425487086647976
 31
0.0
  0
LINE
  5
39BC
330
1F
100
AcDbEntity
  8
0
100
AcDbLine
 10
16.51137522625262
 20
2.563603455527772
 30
0.0
 11
16.51137522625262
 21
2.565611074864623
 31
0.0
  0
LINE
  5
39BD
330
1F
100
AcDbEntity
  8
0
100
AcDbLine
 10
15.91546957885469
 20
2.193049093740825
 30
0.0
 11
15.92839592148725
 21
2.193049093740825
 31
0.0
  0
LINE
  5
39BE
330
1F
100
AcDbEntity
  8
0
100
AcDbLine
 10
15.91546957885469
 20
2.193049093740825
 30
0.0
 11
15.91546957885469
 21
2.199677537036635
 31
0.0
  0
LINE
  5
39BF
330
1F
100
AcDbEntity
  8
0
100
AcDbLine
 10
15.91546957885469
 20
2.192209176424277
 30
0.0
 11
15.91546957885469
 21
2.167842794489018
 31
0.0
  0
LINE
  5
39C0
330
1F
100
AcDbEntity
  8
0
100
AcDbLine
 10
15.91546957885467
 20
2.247729880950355
 30
0.0
 11
15.91546957885469
 21
2.233049093740824
 31
0.0
  0
LINE
  5
39C1
330
1F
100
AcDbEntity
  8
0
100
AcDbLine
 10
15.90254323622212
 20
2.167842794489018
 30
0.0
 11
15.90445614961762
 21
2.167842794489018
 31
0.0
  0
LINE
  5
39C2
330
1F
100
AcDbEntity
  8
0
100
AcDbLine
 10
15.90445614961762
 20
2.167842794489018
 30
0.0
 11
15.91546957885469
 21
2.167842794489018
 31
0.0
  0
LINE
  5
39C3
330
1F
100
AcDbEntity
  8
0
100
AcDbLine
 10
15.91546957885469
 20
2.192209176424277
 30
0.0
 11
15.91627794961762
 21
2.192209176424277
 31
0.0
  0
LINE
  5
39C4
330
1F
100
AcDbEntity
  8
0
100
AcDbLine
 10
15.91627794961762
 20
2.192209176424277
 30
0.0
 11
15.92839592148725
 21
2.192209176424277
 31
0.0
  0
LINE
  5
39C5
330
1F
100
AcDbEntity
  8
0
100
AcDbLine
 10
16.63018747551111
 20
2.19304909374081
 30
0.0
 11
16.63018747551111
 21
2.199677537036631
 31
0.0
  0
LINE
  5
39C6
330
1F
100
AcDbEntity
  8
0
100
AcDbLine
 10
16.6301874755111
 20
2.247729880950355
 30
0.0
 11
16.63018747551111
 21
2.23304909374081
 31
0.0
  0
LINE
  5
39C7
330
1F
100
AcDbEntity
  8
0
100
AcDbLine
 10
16.61726113287855
 20
2.19304909374081
 30
0.0
 11
16.61726113287855
 21
2.199677537036631
 31
0.0
  0
LINE
  5
39C8
330
1F
100
AcDbEntity
  8
0
100
AcDbLine
 10
16.61829446606628
 20
2.167842794489018
 30
0.0
 11
16.61726113287855
 21
2.167842794489018
 31
0.0
  0
LINE
  5
39C9
330
1F
100
AcDbEntity
  8
0
100
AcDbLine
 10
15.91546957885467
 20
2.272936180202162
 30
0.0
 11
15.92839592148724
 21
2.272936180202162
 31
0.0
  0
LINE
  5
39CA
330
1F
100
AcDbEntity
  8
0
100
AcDbLine
 10
15.91546957885466
 20
2.328999061112547
 30
0.0
 11
15.91546957885467
 21
2.312936180202161
 31
0.0
  0
LINE
  5
39CB
330
1F
100
AcDbEntity
  8
0
100
AcDbLine
 10
16.6301874755111
 20
2.272936180202151
 30
0.0
 11
16.6301874755111
 21
2.279564623497972
 31
0.0
  0
LINE
  5
39CC
330
1F
100
AcDbEntity
  8
0
100
AcDbLine
 10
16.6301874755111
 20
2.328999061112547
 30
0.0
 11
16.6301874755111
 21
2.31293618020215
 31
0.0
  0
LINE
  5
39CD
330
1F
100
AcDbEntity
  8
0
100
AcDbLine
 10
16.61726113287853
 20
2.272936180202151
 30
0.0
 11
16.61726113287853
 21
2.279564623497972
 31
0.0
  0
LINE
  5
39CE
330
1F
100
AcDbEntity
  8
0
100
AcDbLine
 10
15.91546957885466
 20
2.354205360364353
 30
0.0
 11
15.92839592148722
 21
2.354205360364353
 31
0.0
  0
LINE
  5
39CF
330
1F
100
AcDbEntity
  8
0
100
AcDbLine
 10
15.91546957885466
 20
2.354205360364353
 30
0.0
 11
15.91546957885466
 21
2.360833803660163
 31
0.0
  0
LINE
  5
39D0
330
1F
100
AcDbEntity
  8
0
100
AcDbLine
 10
15.91546957885465
 20
2.409881042850916
 30
0.0
 11
15.91546957885466
 21
2.394205360364352
 31
0.0
  0
LINE
  5
39D1
330
1F
100
AcDbEntity
  8
0
100
AcDbLine
 10
16.63018747551109
 20
2.409881042850916
 30
0.0
 11
16.6301874755111
 21
2.394205360364342
 31
0.0
  0
LINE
  5
39D2
330
1F
100
AcDbEntity
  8
0
100
AcDbLine
 10
16.61726113287853
 20
2.354205360364343
 30
0.0
 11
16.61726113287853
 21
2.360833803660163
 31
0.0
  0
LINE
  5
39D3
330
1F
100
AcDbEntity
  8
0
100
AcDbLine
 10
15.91546957885465
 20
2.435087342102722
 30
0.0
 11
15.92839592148722
 21
2.435087342102722
 31
0.0
  0
LINE
  5
39D4
330
1F
100
AcDbEntity
  8
0
100
AcDbLine
 10
15.92839592148722
 20
2.435087342102722
 30
0.0
 11
16.51137522625262
 21
2.435087342102715
 31
0.0
  0
LINE
  5
39D5
330
1F
100
AcDbEntity
  8
0
100
AcDbLine
 10
15.91546957885465
 20
2.435087342102722
 30
0.0
 11
15.91546957885465
 21
2.441715785398532
 31
0.0
  0
LINE
  5
39D6
330
1F
100
AcDbEntity
  8
0
100
AcDbLine
 10
15.91546957885464
 20
2.523603455527783
 30
0.0
 11
15.92839592148721
 21
2.523603455527783
 31
0.0
  0
LINE
  5
39D7
330
1F
100
AcDbEntity
  8
0
100
AcDbLine
 10
15.92839592148721
 20
2.523603455527783
 30
0.0
 11
16.51137522625262
 21
2.523603455527776
 31
0.0
  0
LINE
  5
39D8
330
1F
100
AcDbEntity
  8
0
100
AcDbLine
 10
15.91546957885464
 20
2.523603455527783
 30
0.0
 11
15.91546957885464
 21
2.530231898823593
 31
0.0
  0
LINE
  5
39D9
330
1F
100
AcDbEntity
  8
0
100
AcDbLine
 10
15.91546957885464
 20
2.522763538211236
 30
0.0
 11
15.91546957885464
 21
2.498397156275977
 31
0.0
  0
LINE
  5
39DA
330
1F
100
AcDbEntity
  8
0
100
AcDbLine
 10
16.51538050230204
 20
2.762821039399099
 30
0.0
 11
16.51538050230204
 21
2.79266497336
 31
0.0
  0
LINE
  5
39DB
330
1F
100
AcDbEntity
  8
0
100
AcDbLine
 10
16.50245415966947
 20
2.761509503588396
 30
0.0
 11
16.50245415966947
 21
2.737607201261525
 31
0.0
  0
LINE
  5
39DC
330
1F
100
AcDbEntity
  8
0
100
AcDbLine
 10
16.50245415966948
 20
2.781509503588399
 30
0.0
 11
16.50245415966947
 21
2.79266497336
 31
0.0
  0
LINE
  5
39DD
330
1F
100
AcDbEntity
  8
0
100
AcDbLine
 10
15.80066260564564
 20
3.044859287761006
 30
0.0
 11
15.80147097640858
 21
3.044859287761006
 31
0.0
  0
LINE
  5
39DE
330
1F
100
AcDbEntity
  8
0
100
AcDbLine
 10
15.80147097640858
 20
3.044859287761006
 30
0.0
 11
16.50343383023052
 21
3.044859287761006
 31
0.0
  0
LINE
  5
39DF
330
1F
100
AcDbEntity
  8
0
100
AcDbLine
 10
15.80066260564564
 20
3.034703221721912
 30
0.0
 11
15.80066260564564
 21
3.044859287761006
 31
0.0
  0
LINE
  5
39E0
330
1F
100
AcDbEntity
  8
0
100
AcDbLine
 10
15.78773626301307
 20
3.066537964269517
 30
0.0
 11
15.78964917640858
 21
3.066537964269517
 31
0.0
  0
LINE
  5
39E1
330
1F
100
AcDbEntity
  8
0
100
AcDbLine
 10
15.78964917640858
 20
3.066537964269517
 30
0.0
 11
15.80066260564564
 21
3.066537964269517
 31
0.0
  0
LINE
  5
39E2
330
1F
100
AcDbEntity
  8
0
100
AcDbLine
 10
16.51538050230207
 20
3.004859287761011
 30
0.0
 11
16.51538050230206
 21
2.986650877808163
 31
0.0
  0
LINE
  5
39E3
330
1F
100
AcDbEntity
  8
0
100
AcDbLine
 10
16.51538050230207
 20
3.004859287761011
 30
0.0
 11
16.51538050230207
 21
3.034703221721912
 31
0.0
  0
LINE
  5
39E4
330
1F
100
AcDbEntity
  8
0
100
AcDbLine
 10
16.51538050230207
 20
3.034703221721912
 30
0.0
 11
16.51538050230207
 21
3.04485928776101
 31
0.0
  0
LINE
  5
39E5
330
1F
100
AcDbEntity
  8
0
100
AcDbLine
 10
16.50245415966951
 20
3.003547751950307
 30
0.0
 11
16.50245415966951
 21
2.986650877808163
 31
0.0
  0
LINE
  5
39E6
330
1F
100
AcDbEntity
  8
0
100
AcDbLine
 10
16.50245415966951
 20
3.066537964269517
 30
0.0
 11
16.50245415966951
 21
3.057514789746914
 31
0.0
  0
LINE
  5
39E7
330
1F
100
AcDbEntity
  8
0
100
AcDbLine
 10
16.50245415966951
 20
3.057514789746914
 30
0.0
 11
16.50245415966951
 21
3.04485928776101
 31
0.0
  0
LINE
  5
39E8
330
1F
100
AcDbEntity
  8
0
100
AcDbLine
 10
16.50245415966951
 20
3.02354775195031
 30
0.0
 11
16.50245415966951
 21
3.034703221721912
 31
0.0
  0
LINE
  5
39E9
330
1F
100
AcDbEntity
  8
0
100
AcDbLine
 10
16.50348749285723
 20
3.066537964269517
 30
0.0
 11
16.50245415966951
 21
3.066537964269517
 31
0.0
  0
LINE
  5
39EA
330
1F
100
AcDbEntity
  8
0
100
AcDbLine
 10
16.51538050230203
 20
2.674304925974045
 30
0.0
 11
16.51538050230203
 21
2.704148859934946
 31
0.0
  0
LINE
  5
39EB
330
1F
100
AcDbEntity
  8
0
100
AcDbLine
 10
16.51538050230203
 20
2.704148859934946
 30
0.0
 11
16.51538050230203
 21
2.714304925974044
 31
0.0
  0
LINE
  5
39EC
330
1F
100
AcDbEntity
  8
0
100
AcDbLine
 10
16.50245415966946
 20
2.672993390163338
 30
0.0
 11
16.50245415966946
 21
2.649091087836467
 31
0.0
  0
LINE
  5
39ED
330
1F
100
AcDbEntity
  8
0
100
AcDbLine
 10
16.50245415966946
 20
2.704148859934946
 30
0.0
 11
16.50245415966946
 21
2.714304925974044
 31
0.0
  0
LINE
  5
39EE
330
1F
100
AcDbEntity
  8
0
100
AcDbLine
 10
15.80066260564561
 20
2.873546955098369
 30
0.0
 11
15.80066260564561
 21
2.88370302113746
 31
0.0
  0
LINE
  5
39EF
330
1F
100
AcDbEntity
  8
0
100
AcDbLine
 10
16.51538050230205
 20
2.843703021137468
 30
0.0
 11
16.51538050230204
 21
2.824499715907606
 31
0.0
  0
LINE
  5
39F0
330
1F
100
AcDbEntity
  8
0
100
AcDbLine
 10
16.51538050230205
 20
2.873546955098365
 30
0.0
 11
16.51538050230205
 21
2.883703021137463
 31
0.0
  0
LINE
  5
39F1
330
1F
100
AcDbEntity
  8
0
100
AcDbLine
 10
16.50245415966949
 20
2.842391485326761
 30
0.0
 11
16.50245415966947
 21
2.824499715907606
 31
0.0
  0
LINE
  5
39F2
330
1F
100
AcDbEntity
  8
0
100
AcDbLine
 10
16.50245415966949
 20
2.873546955098365
 30
0.0
 11
16.50245415966949
 21
2.883703021137463
 31
0.0
  0
LINE
  5
39F3
330
1F
100
AcDbEntity
  8
0
100
AcDbLine
 10
15.80066260564563
 20
2.954816135260557
 30
0.0
 11
15.80066260564563
 21
2.964972201299651
 31
0.0
  0
LINE
  5
39F4
330
1F
100
AcDbEntity
  8
0
100
AcDbLine
 10
16.51538050230206
 20
2.924972201299656
 30
0.0
 11
16.51538050230205
 21
2.905381697645971
 31
0.0
  0
LINE
  5
39F5
330
1F
100
AcDbEntity
  8
0
100
AcDbLine
 10
16.51538050230206
 20
2.954816135260557
 30
0.0
 11
16.51538050230206
 21
2.964972201299655
 31
0.0
  0
LINE
  5
39F6
330
1F
100
AcDbEntity
  8
0
100
AcDbLine
 10
16.50245415966949
 20
2.923660665488952
 30
0.0
 11
16.50245415966949
 21
2.905381697645971
 31
0.0
  0
LINE
  5
39F7
330
1F
100
AcDbEntity
  8
0
100
AcDbLine
 10
16.50245415966949
 20
2.954816135260557
 30
0.0
 11
16.50245415966949
 21
2.964972201299655
 31
0.0
  0
LINE
  5
39F8
330
1F
100
AcDbEntity
  8
0
100
AcDbLine
 10
15.78348626301301
 20
2.666067654306075
 30
0.0
 11
15.78773626301301
 21
2.666067654306075
 31
0.0
  0
LINE
  5
39F9
330
1F
100
AcDbEntity
  8
0
100
AcDbLine
 10
15.78773626301301
 20
2.666067654306075
 30
0.0
 11
15.90254323622205
 21
2.666067654306079
 31
0.0
  0
LINE
  5
39FA
330
1F
100
AcDbEntity
  8
0
100
AcDbLine
 10
15.90679323622205
 20
2.813956213875801
 30
0.0
 11
15.80066260564561
 21
2.813956213875801
 31
0.0
  0
LINE
  5
39FB
330
1F
100
AcDbEntity
  8
0
100
AcDbLine
 10
15.80066260564561
 20
2.813956213875801
 30
0.0
 11
15.78773626301304
 21
2.813956213875801
 31
0.0
  0
LINE
  5
39FC
330
1F
100
AcDbEntity
  8
0
100
AcDbLine
 10
16.62618219946167
 20
2.666067654306079
 30
0.0
 11
16.63043219946167
 21
2.666067654306079
 31
0.0
  0
LINE
  5
39FD
330
1F
100
AcDbEntity
  8
0
100
AcDbLine
 10
16.63043219946167
 20
2.666067654306079
 30
0.0
 11
16.74523917267071
 21
2.666067654306083
 31
0.0
  0
LINE
  5
39FE
330
1F
100
AcDbEntity
  8
0
100
AcDbLine
 10
15.78773626301307
 20
3.066537964269517
 30
0.0
 11
15.78773626301308
 21
3.158786124079572
 31
0.0
  0
LINE
  5
39FF
330
1F
100
AcDbEntity
  8
0
100
AcDbLine
 10
15.66867928980397
 20
2.573375646217691
 30
0.0
 11
15.67292928980397
 21
2.573375646217691
 31
0.0
  0
LINE
  5
3A00
330
1F
100
AcDbEntity
  8
0
100
AcDbLine
 10
15.67292928980397
 20
2.573375646217691
 30
0.0
 11
15.78773626301301
 21
2.573375646217691
 31
0.0
  0
LINE
  5
3A01
330
1F
100
AcDbEntity
  8
0
100
AcDbLine
 10
16.51137522625262
 20
2.573375646217698
 30
0.0
 11
16.51562522625263
 21
2.573375646217698
 31
0.0
  0
LINE
  5
3A02
330
1F
100
AcDbEntity
  8
0
100
AcDbLine
 10
16.51562522625263
 20
2.573375646217698
 30
0.0
 11
16.63043219946167
 21
2.573375646217698
 31
0.0
  0
LINE
  5
3A03
330
1F
100
AcDbEntity
  8
0
100
AcDbLine
 10
16.63043219946169
 20
2.425487086647976
 30
0.0
 11
16.63018747551109
 21
2.425487086647976
 31
0.0
  0
LINE
  5
3A04
330
1F
100
AcDbEntity
  8
0
100
AcDbLine
 10
16.51137522625262
 20
2.523603455527773
 30
0.0
 11
16.51137522625262
 21
2.563603455527772
 31
0.0
  0
LINE
  5
3A05
330
1F
100
AcDbEntity
  8
0
100
AcDbLine
 10
15.92839592148725
 20
2.193049093740825
 30
0.0
 11
16.61817920041102
 21
2.193049093740814
 31
0.0
  0
LINE
  5
3A06
330
1F
100
AcDbEntity
  8
0
100
AcDbLine
 10
16.60433479024598
 20
2.19304909374081
 30
0.0
 11
16.61726113287855
 21
2.19304909374081
 31
0.0
  0
LINE
  5
3A07
330
1F
100
AcDbEntity
  8
0
100
AcDbLine
 10
16.63018747551111
 20
2.199677537036631
 30
0.0
 11
16.63018747551111
 21
2.23304909374081
 31
0.0
  0
LINE
  5
3A08
330
1F
100
AcDbEntity
  8
0
100
AcDbLine
 10
16.63018747551111
 20
2.167842794489018
 30
0.0
 11
16.63011626606628
 21
2.167842794489018
 31
0.0
  0
LINE
  5
3A09
330
1F
100
AcDbEntity
  8
0
100
AcDbLine
 10
16.63011626606628
 20
2.167842794489018
 30
0.0
 11
16.61829446606628
 21
2.167842794489018
 31
0.0
  0
LINE
  5
3A0A
330
1F
100
AcDbEntity
  8
0
100
AcDbLine
 10
15.92839592148724
 20
2.272936180202162
 30
0.0
 11
16.61781388548413
 21
2.272936180202155
 31
0.0
  0
LINE
  5
3A0B
330
1F
100
AcDbEntity
  8
0
100
AcDbLine
 10
16.60433479024597
 20
2.272936180202151
 30
0.0
 11
16.61726113287853
 21
2.272936180202151
 31
0.0
  0
LINE
  5
3A0C
330
1F
100
AcDbEntity
  8
0
100
AcDbLine
 10
15.91546957885467
 20
2.272936180202162
 30
0.0
 11
15.91546957885467
 21
2.279564623497972
 31
0.0
  0
LINE
  5
3A0D
330
1F
100
AcDbEntity
  8
0
100
AcDbLine
 10
16.6301874755111
 20
2.279564623497972
 30
0.0
 11
16.6301874755111
 21
2.31293618020215
 31
0.0
  0
LINE
  5
3A0E
330
1F
100
AcDbEntity
  8
0
100
AcDbLine
 10
16.61726113287853
 20
2.279564623497972
 30
0.0
 11
16.61726113287854
 21
2.292542967448714
 31
0.0
  0
LINE
  5
3A0F
330
1F
100
AcDbEntity
  8
0
100
AcDbLine
 10
15.92839592148722
 20
2.354205360364353
 30
0.0
 11
16.61744225039361
 21
2.354205360364346
 31
0.0
  0
LINE
  5
3A10
330
1F
100
AcDbEntity
  8
0
100
AcDbLine
 10
16.60433479024596
 20
2.354205360364343
 30
0.0
 11
16.61726113287853
 21
2.354205360364343
 31
0.0
  0
LINE
  5
3A11
330
1F
100
AcDbEntity
  8
0
100
AcDbLine
 10
16.6301874755111
 20
2.354205360364343
 30
0.0
 11
16.6301874755111
 21
2.360833803660163
 31
0.0
  0
LINE
  5
3A12
330
1F
100
AcDbEntity
  8
0
100
AcDbLine
 10
16.6301874755111
 20
2.360833803660163
 30
0.0
 11
16.6301874755111
 21
2.394205360364342
 31
0.0
  0
LINE
  5
3A13
330
1F
100
AcDbEntity
  8
0
100
AcDbLine
 10
16.61726113287853
 20
2.360833803660163
 30
0.0
 11
16.61726113287853
 21
2.373812147610905
 31
0.0
  0
LINE
  5
3A14
330
1F
100
AcDbEntity
  8
0
100
AcDbLine
 10
15.91546957885465
 20
2.47469412934927
 30
0.0
 11
15.91546957885465
 21
2.475087342102721
 31
0.0
  0
LINE
  5
3A15
330
1F
100
AcDbEntity
  8
0
100
AcDbLine
 10
16.51538050230204
 20
2.79266497336
 30
0.0
 11
16.51538050230204
 21
2.802821039399098
 31
0.0
  0
LINE
  5
3A16
330
1F
100
AcDbEntity
  8
0
100
AcDbLine
 10
16.50245415966947
 20
2.79266497336
 30
0.0
 11
16.50245415966947
 21
2.802821039399098
 31
0.0
  0
LINE
  5
3A17
330
1F
100
AcDbEntity
  8
0
100
AcDbLine
 10
16.50245415966951
 20
3.034703221721912
 30
0.0
 11
16.50245415966951
 21
3.04485928776101
 31
0.0
  0
LINE
  5
3A18
330
1F
100
AcDbEntity
  8
0
100
AcDbLine
 10
16.51538050230207
 20
3.066537964269517
 30
0.0
 11
16.51530929285723
 21
3.066537964269517
 31
0.0
  0
LINE
  5
3A19
330
1F
100
AcDbEntity
  8
0
100
AcDbLine
 10
16.51530929285723
 20
3.066537964269517
 30
0.0
 11
16.50348749285723
 21
3.066537964269517
 31
0.0
  0
LINE
  5
3A1A
330
1F
100
AcDbEntity
  8
0
100
AcDbLine
 10
16.51538050230205
 20
2.843703021137468
 30
0.0
 11
16.51538050230205
 21
2.873546955098365
 31
0.0
  0
LINE
  5
3A1B
330
1F
100
AcDbEntity
  8
0
100
AcDbLine
 10
16.51538050230206
 20
2.924972201299656
 30
0.0
 11
16.51538050230206
 21
2.954816135260557
 31
0.0
  0
LINE
  5
3A1C
330
1F
100
AcDbEntity
  8
0
100
AcDbLine
 10
15.90679323622205
 20
2.762821039399096
 30
0.0
 11
15.90679323622205
 21
2.802821039399095
 31
0.0
  0
LINE
  5
3A1D
330
1F
100
AcDbEntity
  8
0
100
AcDbLine
 10
16.63018747551109
 20
2.425487086647976
 30
0.0
 11
16.61726113287852
 21
2.425487086647976
 31
0.0
  0
LINE
  5
3A1E
330
1F
100
AcDbEntity
  8
0
100
AcDbLine
 10
16.61726113287852
 20
2.425487086647976
 30
0.0
 11
16.51137522625262
 21
2.425487086647976
 31
0.0
  0
LINE
  5
3A1F
330
1F
100
AcDbEntity
  8
0
100
AcDbLine
 10
15.91546957885469
 20
2.232655880987373
 30
0.0
 11
15.91546957885469
 21
2.233049093740824
 31
0.0
  0
LINE
  5
3A20
330
1F
100
AcDbEntity
  8
0
100
AcDbLine
 10
16.61726113287855
 20
2.192209176424277
 30
0.0
 11
16.61726113287855
 21
2.181928510776867
 31
0.0
  0
LINE
  5
3A21
330
1F
100
AcDbEntity
  8
0
100
AcDbLine
 10
16.61726113287855
 20
2.181928510776867
 30
0.0
 11
16.61726113287855
 21
2.167842794489018
 31
0.0
  0
LINE
  5
3A22
330
1F
100
AcDbEntity
  8
0
100
AcDbLine
 10
16.61726113287855
 20
2.232655880987376
 30
0.0
 11
16.61726113287855
 21
2.23304909374081
 31
0.0
  0
LINE
  5
3A23
330
1F
100
AcDbEntity
  8
0
100
AcDbLine
 10
15.80066260564564
 20
3.003547751950307
 30
0.0
 11
15.80066260564563
 21
2.986650877808163
 31
0.0
  0
LINE
  5
3A24
330
1F
100
AcDbEntity
  8
0
100
AcDbLine
 10
15.80066260564561
 20
2.842391485326761
 30
0.0
 11
15.80066260564561
 21
2.824499715907606
 31
0.0
  0
LINE
  5
3A25
330
1F
100
AcDbEntity
  8
0
100
AcDbLine
 10
15.80066260564563
 20
2.923660665488952
 30
0.0
 11
15.80066260564561
 21
2.905381697645974
 31
0.0
  0
LINE
  5
3A26
330
1F
100
AcDbEntity
  8
0
100
AcDbLine
 10
15.90679323622205
 20
2.71430492597404
 30
0.0
 11
15.90679323622205
 21
2.762821039399096
 31
0.0
  0
LINE
  5
3A27
330
1F
100
AcDbEntity
  8
0
100
AcDbLine
 10
16.63043219946174
 20
2.080657176444198
 30
0.0
 11
16.63043219946172
 21
2.19304909374081
 31
0.0
  0
LINE
  5
3A28
330
1F
100
AcDbEntity
  8
0
100
AcDbLine
 10
15.90679323622205
 20
2.673832225659154
 30
0.0
 11
15.90679323622205
 21
2.674304925974041
 31
0.0
  0
LINE
  5
3A29
330
1F
100
AcDbEntity
  8
0
100
AcDbLine
 10
15.90679323622205
 20
2.674304925974041
 30
0.0
 11
15.90679323622205
 21
2.71430492597404
 31
0.0
  0
LINE
  5
3A2A
330
1F
100
AcDbEntity
  8
0
100
AcDbLine
 10
16.51137522625262
 20
2.435087342102711
 30
0.0
 11
16.51137522625262
 21
2.47508734210271
 31
0.0
  0
LINE
  5
3A2B
330
1F
100
AcDbEntity
  8
0
100
AcDbLine
 10
16.51137522625262
 20
2.47508734210271
 30
0.0
 11
16.51137522625262
 21
2.523603455527773
 31
0.0
  0
LINE
  5
3A2C
330
1F
100
AcDbEntity
  8
0
100
AcDbLine
 10
16.50348749285723
 20
3.106248808152027
 30
0.0
 11
16.50348749285723
 21
3.107699568712519
 31
0.0
  0
LINE
  5
3A2D
330
1F
100
AcDbEntity
  8
0
100
AcDbLine
 10
15.91546957885464
 20
2.563210242774331
 30
0.0
 11
15.91546957885464
 21
2.563603455527783
 31
0.0
  0
LINE
  5
3A2E
330
1F
100
AcDbEntity
  8
0
100
AcDbLine
 10
15.80066260564564
 20
3.02354775195031
 30
0.0
 11
15.80066260564564
 21
3.034703221721912
 31
0.0
  0
LINE
  5
3A2F
330
1F
100
AcDbEntity
  8
0
100
AcDbLine
 10
15.91546957885467
 20
2.312542967448713
 30
0.0
 11
15.91546957885467
 21
2.312936180202161
 31
0.0
  0
LINE
  5
3A30
330
1F
100
AcDbEntity
  8
0
100
AcDbLine
 10
15.91546957885466
 20
2.393812147610905
 30
0.0
 11
15.91546957885466
 21
2.394205360364352
 31
0.0
  0
LINE
  5
3A31
330
1F
100
AcDbEntity
  8
0
100
AcDbLine
 10
15.91546957885464
 20
2.530231898823593
 30
0.0
 11
15.91546957885464
 21
2.543210242774332
 31
0.0
  0
LINE
  5
3A32
330
1F
100
AcDbEntity
  8
0
100
AcDbLine
 10
16.50245415966946
 20
2.692993390163344
 30
0.0
 11
16.50245415966946
 21
2.704148859934946
 31
0.0
  0
LINE
  5
3A33
330
1F
100
AcDbEntity
  8
0
100
AcDbLine
 10
15.91546957885467
 20
2.279564623497972
 30
0.0
 11
15.91546957885467
 21
2.292542967448714
 31
0.0
  0
LINE
  5
3A34
330
1F
100
AcDbEntity
  8
0
100
AcDbLine
 10
15.91546957885466
 20
2.360833803660163
 30
0.0
 11
15.91546957885466
 21
2.373812147610905
 31
0.0
  0
LINE
  5
3A35
330
1F
100
AcDbEntity
  8
0
100
AcDbLine
 10
15.80066260564561
 20
2.862391485326767
 30
0.0
 11
15.80066260564561
 21
2.873546955098369
 31
0.0
  0
LINE
  5
3A36
330
1F
100
AcDbEntity
  8
0
100
AcDbLine
 10
16.50245415966949
 20
2.862391485326764
 30
0.0
 11
16.50245415966949
 21
2.873546955098365
 31
0.0
  0
LINE
  5
3A37
330
1F
100
AcDbEntity
  8
0
100
AcDbLine
 10
15.80066260564563
 20
2.943660665488955
 30
0.0
 11
15.80066260564563
 21
2.954816135260557
 31
0.0
  0
LINE
  5
3A38
330
1F
100
AcDbEntity
  8
0
100
AcDbLine
 10
16.61726113287854
 20
2.312542967448713
 30
0.0
 11
16.61726113287853
 21
2.31293618020215
 31
0.0
  0
LINE
  5
3A39
330
1F
100
AcDbEntity
  8
0
100
AcDbLine
 10
16.61726113287853
 20
2.393812147610905
 30
0.0
 11
16.61726113287853
 21
2.394205360364342
 31
0.0
  0
LINE
  5
3A3A
330
1F
100
AcDbEntity
  8
0
100
AcDbLine
 10
16.50245415966949
 20
2.943660665488955
 30
0.0
 11
16.50245415966949
 21
2.954816135260557
 31
0.0
  0
LINE
  5
3A3B
330
1F
100
AcDbEntity
  8
0
100
AcDbLine
 10
16.51562522625267
 20
3.004859287761011
 30
0.0
 11
16.51562522625267
 21
2.964972201299655
 31
0.0
  0
LINE
  5
3A3C
330
1F
100
AcDbEntity
  8
0
100
AcDbLine
 10
15.91546957885465
 20
2.441715785398532
 30
0.0
 11
15.91546957885466
 21
2.45469412934927
 31
0.0
  0
LINE
  5
3A3D
330
1F
100
AcDbEntity
  8
0
100
AcDbLine
 10
15.77559852961762
 20
2.133194492371746
 30
0.0
 11
15.77559852961762
 21
2.131743731811255
 31
0.0
  0
LINE
  5
3A3E
330
1F
100
AcDbEntity
  8
0
100
AcDbLine
 10
15.66079155640858
 20
3.10624880815202
 30
0.0
 11
15.66079155640858
 21
3.107699568712511
 31
0.0
  0
LINE
  5
3A3F
330
1F
100
AcDbEntity
  8
0
100
AcDbLine
 10
16.51562522625266
 20
2.924972201299656
 30
0.0
 11
16.51562522625265
 21
2.883703021137463
 31
0.0
  0
LINE
  5
3A40
330
1F
100
AcDbEntity
  8
0
100
AcDbLine
 10
15.91546957885469
 20
2.199677537036635
 30
0.0
 11
15.91546957885469
 21
2.212655880987373
 31
0.0
  0
LINE
  5
3A41
330
1F
100
AcDbEntity
  8
0
100
AcDbLine
 10
15.90254323622209
 20
2.496773557497007
 30
0.0
 11
15.90254323622207
 21
2.498397156275977
 31
0.0
  0
LINE
  5
3A42
330
1F
100
AcDbEntity
  8
0
100
AcDbLine
 10
16.51562522625265
 20
2.843703021137468
 30
0.0
 11
16.51562522625265
 21
2.802821039399098
 31
0.0
  0
LINE
  5
3A43
330
1F
100
AcDbEntity
  8
0
100
AcDbLine
 10
16.61726113287855
 20
2.199677537036631
 30
0.0
 11
16.61726113287855
 21
2.212655880987373
 31
0.0
  0
LINE
  5
3A44
330
1F
100
AcDbEntity
  8
0
100
AcDbLine
 10
16.51562522625265
 20
2.762821039399099
 30
0.0
 11
16.51562522625263
 21
2.714304925974044
 31
0.0
  0
LINE
  5
3A45
330
1F
100
AcDbEntity
  8
0
100
AcDbLine
 10
16.51562522625263
 20
2.674304925974045
 30
0.0
 11
16.51562522625263
 21
2.573375646217698
 31
0.0
  0
LINE
  5
3A46
330
1F
100
AcDbEntity
  8
0
100
AcDbLine
 10
15.80147097640858
 20
3.107699568712511
 30
0.0
 11
15.80147097640858
 21
3.10624880815202
 31
0.0
  0
LINE
  5
3A47
330
1F
100
AcDbEntity
  8
0
100
AcDbLine
 10
16.64416691285723
 20
3.107699568712517
 30
0.0
 11
16.64416691285723
 21
3.106248808152026
 31
0.0
  0
LINE
  5
3A48
330
1F
100
AcDbEntity
  8
0
100
AcDbLine
 10
15.91627794961762
 20
2.131743731811255
 30
0.0
 11
15.91627794961762
 21
2.13319449237175
 31
0.0
  0
LINE
  5
3A49
330
1F
100
AcDbEntity
  8
0
100
AcDbLine
 10
16.61829446606628
 20
2.133194492371753
 30
0.0
 11
16.61829446606628
 21
2.131743731811258
 31
0.0
  0
LINE
  5
3A4A
330
1F
100
AcDbEntity
  8
0
100
AcDbLine
 10
16.75897388606627
 20
2.131743731811258
 30
0.0
 11
16.75897388606627
 21
2.133194492371753
 31
0.0
  0
LINE
  5
3A4B
330
1F
100
AcDbEntity
  8
0
100
AcDbLine
 10
15.78773626301308
 20
2.080657176444194
 30
0.0
 11
15.78773626301304
 21
2.425487086647965
 31
0.0
  0
LINE
  5
3A4C
330
1F
100
AcDbEntity
  8
0
100
AcDbLine
 10
15.78773626301301
 20
2.666067654306075
 30
0.0
 11
15.78773626301301
 21
2.573375646217691
 31
0.0
  0
LINE
  5
3A4D
330
1F
100
AcDbEntity
  8
0
100
AcDbLine
 10
15.78348626301301
 20
2.813956213875801
 30
0.0
 11
15.78348626301301
 21
2.67383222565915
 31
0.0
  0
LINE
  5
3A4E
330
1F
100
AcDbEntity
  8
0
100
AcDbLine
 10
15.90679323622205
 20
2.813956213875801
 30
0.0
 11
15.90679323622205
 21
2.802821039399095
 31
0.0
  0
LINE
  5
3A4F
330
1F
100
AcDbEntity
  8
0
100
AcDbLine
 10
15.77559852961762
 20
2.232711572062918
 30
0.0
 11
15.77559852961762
 21
2.181928510776863
 31
0.0
  0
LINE
  5
3A50
330
1F
100
AcDbEntity
  8
0
100
AcDbLine
 10
15.78742032961762
 20
2.232711572062918
 30
0.0
 11
15.78742032961762
 21
2.131743731811255
 31
0.0
  0
LINE
  5
3A51
330
1F
100
AcDbEntity
  8
0
100
AcDbLine
 10
15.91627794961762
 20
2.192209176424277
 30
0.0
 11
15.91627794961762
 21
2.181928510776863
 31
0.0
  0
LINE
  5
3A52
330
1F
100
AcDbEntity
  8
0
100
AcDbLine
 10
15.91627794961762
 20
2.153389647736108
 30
0.0
 11
15.91627794961762
 21
2.13319449237175
 31
0.0
  0
LINE
  5
3A53
330
1F
100
AcDbEntity
  8
0
100
AcDbLine
 10
15.92809974961762
 20
2.153389647736108
 30
0.0
 11
15.92809974961762
 21
2.13319449237175
 31
0.0
  0
LINE
  5
3A54
330
1F
100
AcDbEntity
  8
0
100
AcDbLine
 10
15.92809974961762
 20
2.153389647736108
 30
0.0
 11
15.92809974961762
 21
2.181928510776863
 31
0.0
  0
LINE
  5
3A55
330
1F
100
AcDbEntity
  8
0
100
AcDbLine
 10
15.91627794961762
 20
2.181928510776863
 30
0.0
 11
15.91627794961762
 21
2.153389647736108
 31
0.0
  0
LINE
  5
3A56
330
1F
100
AcDbEntity
  8
0
100
AcDbLine
 10
15.76377672961762
 20
2.153389647736108
 30
0.0
 11
15.76377672961762
 21
2.181928510776863
 31
0.0
  0
LINE
  5
3A57
330
1F
100
AcDbEntity
  8
0
100
AcDbLine
 10
15.77559852961762
 20
2.153389647736108
 30
0.0
 11
15.77559852961762
 21
2.181928510776863
 31
0.0
  0
LINE
  5
3A58
330
1F
100
AcDbEntity
  8
0
100
AcDbLine
 10
15.76377672961762
 20
2.153389647736108
 30
0.0
 11
15.76377672961762
 21
2.133194492371746
 31
0.0
  0
LINE
  5
3A59
330
1F
100
AcDbEntity
  8
0
100
AcDbLine
 10
15.77559852961762
 20
2.153389647736108
 30
0.0
 11
15.77559852961762
 21
2.133194492371746
 31
0.0
  0
LINE
  5
3A5A
330
1F
100
AcDbEntity
  8
0
100
AcDbLine
 10
16.74523917267078
 20
2.080657176444201
 30
0.0
 11
16.74523917267071
 21
2.666067654306083
 31
0.0
  0
LINE
  5
3A5B
330
1F
100
AcDbEntity
  8
0
100
AcDbLine
 10
16.63043219946167
 20
2.666067654306079
 30
0.0
 11
16.63043219946167
 21
2.573375646217698
 31
0.0
  0
LINE
  5
3A5C
330
1F
100
AcDbEntity
  8
0
100
AcDbLine
 10
16.62618219946167
 20
2.813956213875805
 30
0.0
 11
16.62618219946167
 21
2.673832225659158
 31
0.0
  0
LINE
  5
3A5D
330
1F
100
AcDbEntity
  8
0
100
AcDbLine
 10
16.74948917267071
 20
2.813956213875805
 30
0.0
 11
16.74948917267071
 21
2.673832225659158
 31
0.0
  0
LINE
  5
3A5E
330
1F
100
AcDbEntity
  8
0
100
AcDbLine
 10
16.75897388606627
 20
2.232711572062921
 30
0.0
 11
16.75897388606627
 21
2.181928510776867
 31
0.0
  0
LINE
  5
3A5F
330
1F
100
AcDbEntity
  8
0
100
AcDbLine
 10
16.74715208606627
 20
2.232711572062921
 30
0.0
 11
16.74715208606627
 21
2.131743731811258
 31
0.0
  0
LINE
  5
3A60
330
1F
100
AcDbEntity
  8
0
100
AcDbLine
 10
16.75897388606627
 20
2.153389647736116
 30
0.0
 11
16.75897388606627
 21
2.133194492371753
 31
0.0
  0
LINE
  5
3A61
330
1F
100
AcDbEntity
  8
0
100
AcDbLine
 10
16.77079568606627
 20
2.153389647736116
 30
0.0
 11
16.77079568606627
 21
2.133194492371753
 31
0.0
  0
LINE
  5
3A62
330
1F
100
AcDbEntity
  8
0
100
AcDbLine
 10
16.77079568606627
 20
2.153389647736116
 30
0.0
 11
16.77079568606627
 21
2.181928510776867
 31
0.0
  0
LINE
  5
3A63
330
1F
100
AcDbEntity
  8
0
100
AcDbLine
 10
16.75897388606627
 20
2.181928510776867
 30
0.0
 11
16.75897388606627
 21
2.153389647736116
 31
0.0
  0
LINE
  5
3A64
330
1F
100
AcDbEntity
  8
0
100
AcDbLine
 10
16.60647266606628
 20
2.153389647736116
 30
0.0
 11
16.60647266606628
 21
2.181928510776867
 31
0.0
  0
LINE
  5
3A65
330
1F
100
AcDbEntity
  8
0
100
AcDbLine
 10
16.61829446606628
 20
2.153389647736116
 30
0.0
 11
16.61829446606628
 21
2.167842794489018
 31
0.0
  0
LINE
  5
3A66
330
1F
100
AcDbEntity
  8
0
100
AcDbLine
 10
16.60647266606628
 20
2.153389647736116
 30
0.0
 11
16.60647266606628
 21
2.133194492371753
 31
0.0
  0
LINE
  5
3A67
330
1F
100
AcDbEntity
  8
0
100
AcDbLine
 10
16.61829446606628
 20
2.153389647736116
 30
0.0
 11
16.61829446606628
 21
2.133194492371753
 31
0.0
  0
LINE
  5
3A68
330
1F
100
AcDbEntity
  8
0
100
AcDbLine
 10
15.66867928980397
 20
2.425487086647965
 30
0.0
 11
15.66867928980397
 21
2.565611074864616
 31
0.0
  0
LINE
  5
3A69
330
1F
100
AcDbEntity
  8
0
100
AcDbLine
 10
15.79198626301301
 20
2.425487086647965
 30
0.0
 11
15.79198626301301
 21
2.565611074864616
 31
0.0
  0
LINE
  5
3A6A
330
1F
100
AcDbEntity
  8
0
100
AcDbLine
 10
15.66079155640858
 20
3.006731728460849
 30
0.0
 11
15.66079155640858
 21
3.057514789746907
 31
0.0
  0
LINE
  5
3A6B
330
1F
100
AcDbEntity
  8
0
100
AcDbLine
 10
15.67261335640858
 20
3.006731728460849
 30
0.0
 11
15.67261335640858
 21
3.107699568712511
 31
0.0
  0
LINE
  5
3A6C
330
1F
100
AcDbEntity
  8
0
100
AcDbLine
 10
15.80147097640858
 20
3.044859287761006
 30
0.0
 11
15.80147097640858
 21
3.057514789746907
 31
0.0
  0
LINE
  5
3A6D
330
1F
100
AcDbEntity
  8
0
100
AcDbLine
 10
15.80147097640858
 20
3.086053652787658
 30
0.0
 11
15.80147097640858
 21
3.10624880815202
 31
0.0
  0
LINE
  5
3A6E
330
1F
100
AcDbEntity
  8
0
100
AcDbLine
 10
15.81329277640858
 20
3.086053652787658
 30
0.0
 11
15.81329277640858
 21
3.10624880815202
 31
0.0
  0
LINE
  5
3A6F
330
1F
100
AcDbEntity
  8
0
100
AcDbLine
 10
15.81329277640858
 20
3.086053652787658
 30
0.0
 11
15.81329277640858
 21
3.057514789746907
 31
0.0
  0
LINE
  5
3A70
330
1F
100
AcDbEntity
  8
0
100
AcDbLine
 10
15.80147097640858
 20
3.057514789746907
 30
0.0
 11
15.80147097640858
 21
3.086053652787658
 31
0.0
  0
LINE
  5
3A71
330
1F
100
AcDbEntity
  8
0
100
AcDbLine
 10
15.64896975640858
 20
3.086053652787658
 30
0.0
 11
15.64896975640858
 21
3.057514789746907
 31
0.0
  0
LINE
  5
3A72
330
1F
100
AcDbEntity
  8
0
100
AcDbLine
 10
15.66079155640858
 20
3.086053652787658
 30
0.0
 11
15.66079155640858
 21
3.057514789746907
 31
0.0
  0
LINE
  5
3A73
330
1F
100
AcDbEntity
  8
0
100
AcDbLine
 10
15.64896975640858
 20
3.086053652787658
 30
0.0
 11
15.64896975640858
 21
3.10624880815202
 31
0.0
  0
LINE
  5
3A74
330
1F
100
AcDbEntity
  8
0
100
AcDbLine
 10
15.66079155640858
 20
3.086053652787658
 30
0.0
 11
15.66079155640858
 21
3.10624880815202
 31
0.0
  0
LINE
  5
3A75
330
1F
100
AcDbEntity
  8
0
100
AcDbLine
 10
16.63043219946174
 20
3.158786124079577
 30
0.0
 11
16.63043219946169
 21
2.813956213875805
 31
0.0
  0
LINE
  5
3A76
330
1F
100
AcDbEntity
  8
0
100
AcDbLine
 10
16.51137522625262
 20
2.425487086647976
 30
0.0
 11
16.51137522625262
 21
2.435087342102711
 31
0.0
  0
LINE
  5
3A77
330
1F
100
AcDbEntity
  8
0
100
AcDbLine
 10
16.63468219946167
 20
2.425487086647976
 30
0.0
 11
16.63468219946167
 21
2.565611074864623
 31
0.0
  0
LINE
  5
3A78
330
1F
100
AcDbEntity
  8
0
100
AcDbLine
 10
16.64416691285723
 20
3.006731728460854
 30
0.0
 11
16.64416691285723
 21
3.057514789746912
 31
0.0
  0
LINE
  5
3A79
330
1F
100
AcDbEntity
  8
0
100
AcDbLine
 10
16.63234511285723
 20
3.006731728460854
 30
0.0
 11
16.63234511285723
 21
3.107699568712517
 31
0.0
  0
LINE
  5
3A7A
330
1F
100
AcDbEntity
  8
0
100
AcDbLine
 10
16.64416691285723
 20
3.086053652787663
 30
0.0
 11
16.64416691285723
 21
3.106248808152026
 31
0.0
  0
LINE
  5
3A7B
330
1F
100
AcDbEntity
  8
0
100
AcDbLine
 10
16.65598871285723
 20
3.086053652787663
 30
0.0
 11
16.65598871285723
 21
3.106248808152026
 31
0.0
  0
LINE
  5
3A7C
330
1F
100
AcDbEntity
  8
0
100
AcDbLine
 10
16.65598871285723
 20
3.086053652787663
 30
0.0
 11
16.65598871285723
 21
3.057514789746912
 31
0.0
  0
LINE
  5
3A7D
330
1F
100
AcDbEntity
  8
0
100
AcDbLine
 10
16.64416691285723
 20
3.057514789746912
 30
0.0
 11
16.64416691285723
 21
3.086053652787663
 31
0.0
  0
LINE
  5
3A7E
330
1F
100
AcDbEntity
  8
0
100
AcDbLine
 10
16.49166569285723
 20
3.086053652787665
 30
0.0
 11
16.49166569285723
 21
3.057514789746914
 31
0.0
  0
LINE
  5
3A7F
330
1F
100
AcDbEntity
  8
0
100
AcDbLine
 10
16.50348749285723
 20
3.086053652787665
 30
0.0
 11
16.50348749285723
 21
3.066537964269517
 31
0.0
  0
LINE
  5
3A80
330
1F
100
AcDbEntity
  8
0
100
AcDbLine
 10
16.49166569285723
 20
3.086053652787665
 30
0.0
 11
16.49166569285723
 21
3.106248808152027
 31
0.0
  0
LINE
  5
3A81
330
1F
100
AcDbEntity
  8
0
100
AcDbLine
 10
16.50348749285723
 20
3.086053652787665
 30
0.0
 11
16.50348749285723
 21
3.106248808152027
 31
0.0
  0
LINE
  5
3A82
330
1F
100
AcDbEntity
  8
0
100
AcDbLine
 10
15.90254323622212
 20
2.167842794489018
 30
0.0
 11
15.90254323622212
 21
2.199677537036635
 31
0.0
  0
LINE
  5
3A83
330
1F
100
AcDbEntity
  8
0
100
AcDbLine
 10
15.90254323622212
 20
2.199677537036635
 30
0.0
 11
15.90254323622212
 21
2.247729880950355
 31
0.0
  0
LINE
  5
3A84
330
1F
100
AcDbEntity
  8
0
100
AcDbLine
 10
16.63043219946172
 20
2.19304909374081
 30
0.0
 11
16.63043219946173
 21
2.23304909374081
 31
0.0
  0
LINE
  5
3A85
330
1F
100
AcDbEntity
  8
0
100
AcDbLine
 10
15.91546957885467
 20
2.247729880950355
 30
0.0
 11
15.91546957885467
 21
2.272096262885614
 31
0.0
  0
LINE
  5
3A86
330
1F
100
AcDbEntity
  8
0
100
AcDbLine
 10
15.91546957885469
 20
2.232655880987373
 30
0.0
 11
15.91546957885469
 21
2.212655880987373
 31
0.0
  0
LINE
  5
3A87
330
1F
100
AcDbEntity
  8
0
100
AcDbLine
 10
15.92839592148725
 20
2.212655880987373
 30
0.0
 11
15.92839592148725
 21
2.232655880987373
 31
0.0
  0
LINE
  5
3A88
330
1F
100
AcDbEntity
  8
0
100
AcDbLine
 10
15.91546957885469
 20
2.192209176424277
 30
0.0
 11
15.91546957885469
 21
2.193049093740825
 31
0.0
  0
LINE
  5
3A89
330
1F
100
AcDbEntity
  8
0
100
AcDbLine
 10
15.92839592148725
 20
2.192209176424277
 30
0.0
 11
15.92839592148725
 21
2.193049093740825
 31
0.0
  0
LINE
  5
3A8A
330
1F
100
AcDbEntity
  8
0
100
AcDbLine
 10
16.61726113287855
 20
2.192209176424277
 30
0.0
 11
16.61726113287855
 21
2.19304909374081
 31
0.0
  0
LINE
  5
3A8B
330
1F
100
AcDbEntity
  8
0
100
AcDbLine
 10
16.60433479024598
 20
2.192209176424277
 30
0.0
 11
16.60433479024598
 21
2.19304909374081
 31
0.0
  0
LINE
  5
3A8C
330
1F
100
AcDbEntity
  8
0
100
AcDbLine
 10
16.60433479024598
 20
2.232655880987376
 30
0.0
 11
16.60433479024598
 21
2.212655880987373
 31
0.0
  0
LINE
  5
3A8D
330
1F
100
AcDbEntity
  8
0
100
AcDbLine
 10
16.61726113287855
 20
2.212655880987373
 30
0.0
 11
16.61726113287855
 21
2.232655880987376
 31
0.0
  0
LINE
  5
3A8E
330
1F
100
AcDbEntity
  8
0
100
AcDbLine
 10
16.6301874755111
 20
2.247729880950355
 30
0.0
 11
16.6301874755111
 21
2.272936180202151
 31
0.0
  0
LINE
  5
3A8F
330
1F
100
AcDbEntity
  8
0
100
AcDbLine
 10
16.61726113287855
 20
2.247729880950355
 30
0.0
 11
16.61726113287854
 21
2.272096262885614
 31
0.0
  0
LINE
  5
3A90
330
1F
100
AcDbEntity
  8
0
100
AcDbLine
 10
15.90254323622212
 20
2.247729880950355
 30
0.0
 11
15.9025432362221
 21
2.279564623497972
 31
0.0
  0
LINE
  5
3A91
330
1F
100
AcDbEntity
  8
0
100
AcDbLine
 10
15.9025432362221
 20
2.279564623497972
 30
0.0
 11
15.9025432362221
 21
2.328999061112547
 31
0.0
  0
LINE
  5
3A92
330
1F
100
AcDbEntity
  8
0
100
AcDbLine
 10
16.63043219946173
 20
2.272936180202151
 30
0.0
 11
16.63043219946172
 21
2.31293618020215
 31
0.0
  0
LINE
  5
3A93
330
1F
100
AcDbEntity
  8
0
100
AcDbLine
 10
15.91546957885466
 20
2.328999061112547
 30
0.0
 11
15.91546957885466
 21
2.353365443047806
 31
0.0
  0
LINE
  5
3A94
330
1F
100
AcDbEntity
  8
0
100
AcDbLine
 10
15.91546957885467
 20
2.312542967448713
 30
0.0
 11
15.91546957885467
 21
2.292542967448714
 31
0.0
  0
LINE
  5
3A95
330
1F
100
AcDbEntity
  8
0
100
AcDbLine
 10
15.92839592148724
 20
2.292542967448714
 30
0.0
 11
15.92839592148724
 21
2.312542967448713
 31
0.0
  0
LINE
  5
3A96
330
1F
100
AcDbEntity
  8
0
100
AcDbLine
 10
15.91546957885467
 20
2.272096262885614
 30
0.0
 11
15.91546957885467
 21
2.272936180202162
 31
0.0
  0
LINE
  5
3A97
330
1F
100
AcDbEntity
  8
0
100
AcDbLine
 10
15.92839592148724
 20
2.272096262885614
 30
0.0
 11
15.92839592148724
 21
2.272936180202162
 31
0.0
  0
LINE
  5
3A98
330
1F
100
AcDbEntity
  8
0
100
AcDbLine
 10
16.61726113287854
 20
2.272096262885614
 30
0.0
 11
16.61726113287853
 21
2.272936180202151
 31
0.0
  0
LINE
  5
3A99
330
1F
100
AcDbEntity
  8
0
100
AcDbLine
 10
16.60433479024597
 20
2.272096262885614
 30
0.0
 11
16.60433479024597
 21
2.272936180202151
 31
0.0
  0
LINE
  5
3A9A
330
1F
100
AcDbEntity
  8
0
100
AcDbLine
 10
16.60433479024597
 20
2.312542967448713
 30
0.0
 11
16.60433479024597
 21
2.292542967448714
 31
0.0
  0
LINE
  5
3A9B
330
1F
100
AcDbEntity
  8
0
100
AcDbLine
 10
16.61726113287854
 20
2.292542967448714
 30
0.0
 11
16.61726113287854
 21
2.312542967448713
 31
0.0
  0
LINE
  5
3A9C
330
1F
100
AcDbEntity
  8
0
100
AcDbLine
 10
16.6301874755111
 20
2.328999061112547
 30
0.0
 11
16.6301874755111
 21
2.354205360364343
 31
0.0
  0
LINE
  5
3A9D
330
1F
100
AcDbEntity
  8
0
100
AcDbLine
 10
16.61726113287853
 20
2.328999061112547
 30
0.0
 11
16.61726113287853
 21
2.353365443047806
 31
0.0
  0
LINE
  5
3A9E
330
1F
100
AcDbEntity
  8
0
100
AcDbLine
 10
15.9025432362221
 20
2.328999061112547
 30
0.0
 11
15.90254323622209
 21
2.360833803660163
 31
0.0
  0
LINE
  5
3A9F
330
1F
100
AcDbEntity
  8
0
100
AcDbLine
 10
15.90254323622209
 20
2.360833803660163
 30
0.0
 11
15.90254323622209
 21
2.409881042850916
 31
0.0
  0
LINE
  5
3AA0
330
1F
100
AcDbEntity
  8
0
100
AcDbLine
 10
16.63043219946172
 20
2.354205360364343
 30
0.0
 11
16.63043219946172
 21
2.394205360364342
 31
0.0
  0
LINE
  5
3AA1
330
1F
100
AcDbEntity
  8
0
100
AcDbLine
 10
15.91546957885465
 20
2.409881042850916
 30
0.0
 11
15.91546957885465
 21
2.434247424786175
 31
0.0
  0
LINE
  5
3AA2
330
1F
100
AcDbEntity
  8
0
100
AcDbLine
 10
15.91546957885466
 20
2.393812147610905
 30
0.0
 11
15.91546957885466
 21
2.373812147610905
 31
0.0
  0
LINE
  5
3AA3
330
1F
100
AcDbEntity
  8
0
100
AcDbLine
 10
15.92839592148722
 20
2.373812147610905
 30
0.0
 11
15.92839592148722
 21
2.393812147610905
 31
0.0
  0
LINE
  5
3AA4
330
1F
100
AcDbEntity
  8
0
100
AcDbLine
 10
15.91546957885466
 20
2.353365443047806
 30
0.0
 11
15.91546957885466
 21
2.354205360364353
 31
0.0
  0
LINE
  5
3AA5
330
1F
100
AcDbEntity
  8
0
100
AcDbLine
 10
15.92839592148722
 20
2.353365443047806
 30
0.0
 11
15.92839592148722
 21
2.354205360364353
 31
0.0
  0
LINE
  5
3AA6
330
1F
100
AcDbEntity
  8
0
100
AcDbLine
 10
16.61726113287853
 20
2.353365443047806
 30
0.0
 11
16.61726113287853
 21
2.354205360364343
 31
0.0
  0
LINE
  5
3AA7
330
1F
100
AcDbEntity
  8
0
100
AcDbLine
 10
16.60433479024596
 20
2.353365443047806
 30
0.0
 11
16.60433479024596
 21
2.354205360364343
 31
0.0
  0
LINE
  5
3AA8
330
1F
100
AcDbEntity
  8
0
100
AcDbLine
 10
16.60433479024596
 20
2.393812147610905
 30
0.0
 11
16.60433479024596
 21
2.373812147610905
 31
0.0
  0
LINE
  5
3AA9
330
1F
100
AcDbEntity
  8
0
100
AcDbLine
 10
16.61726113287853
 20
2.373812147610905
 30
0.0
 11
16.61726113287853
 21
2.393812147610905
 31
0.0
  0
LINE
  5
3AAA
330
1F
100
AcDbEntity
  8
0
100
AcDbLine
 10
16.63018747551109
 20
2.409881042850916
 30
0.0
 11
16.63018747551109
 21
2.425487086647976
 31
0.0
  0
LINE
  5
3AAB
330
1F
100
AcDbEntity
  8
0
100
AcDbLine
 10
16.61726113287853
 20
2.409881042850916
 30
0.0
 11
16.61726113287852
 21
2.425487086647976
 31
0.0
  0
LINE
  5
3AAC
330
1F
100
AcDbEntity
  8
0
100
AcDbLine
 10
15.90254323622209
 20
2.409881042850916
 30
0.0
 11
15.90254323622209
 21
2.441715785398532
 31
0.0
  0
LINE
  5
3AAD
330
1F
100
AcDbEntity
  8
0
100
AcDbLine
 10
15.90254323622209
 20
2.441715785398532
 30
0.0
 11
15.90254323622209
 21
2.496773557497007
 31
0.0
  0
LINE
  5
3AAE
330
1F
100
AcDbEntity
  8
0
100
AcDbLine
 10
15.91546957885465
 20
2.47469412934927
 30
0.0
 11
15.91546957885466
 21
2.45469412934927
 31
0.0
  0
LINE
  5
3AAF
330
1F
100
AcDbEntity
  8
0
100
AcDbLine
 10
15.92839592148722
 20
2.45469412934927
 30
0.0
 11
15.92839592148722
 21
2.47469412934927
 31
0.0
  0
LINE
  5
3AB0
330
1F
100
AcDbEntity
  8
0
100
AcDbLine
 10
15.91546957885465
 20
2.434247424786175
 30
0.0
 11
15.91546957885465
 21
2.435087342102722
 31
0.0
  0
LINE
  5
3AB1
330
1F
100
AcDbEntity
  8
0
100
AcDbLine
 10
15.92839592148722
 20
2.434247424786175
 30
0.0
 11
15.92839592148722
 21
2.435087342102722
 31
0.0
  0
LINE
  5
3AB2
330
1F
100
AcDbEntity
  8
0
100
AcDbLine
 10
15.90254323622207
 20
2.498397156275977
 30
0.0
 11
15.90254323622207
 21
2.530231898823593
 31
0.0
  0
LINE
  5
3AB3
330
1F
100
AcDbEntity
  8
0
100
AcDbLine
 10
15.90254323622207
 20
2.530231898823593
 30
0.0
 11
15.90254323622207
 21
2.585289670922069
 31
0.0
  0
LINE
  5
3AB4
330
1F
100
AcDbEntity
  8
0
100
AcDbLine
 10
15.91546957885464
 20
2.563210242774331
 30
0.0
 11
15.91546957885464
 21
2.543210242774332
 31
0.0
  0
LINE
  5
3AB5
330
1F
100
AcDbEntity
  8
0
100
AcDbLine
 10
15.92839592148721
 20
2.543210242774332
 30
0.0
 11
15.92839592148721
 21
2.563210242774331
 31
0.0
  0
LINE
  5
3AB6
330
1F
100
AcDbEntity
  8
0
100
AcDbLine
 10
15.91546957885464
 20
2.522763538211236
 30
0.0
 11
15.91546957885464
 21
2.523603455527783
 31
0.0
  0
LINE
  5
3AB7
330
1F
100
AcDbEntity
  8
0
100
AcDbLine
 10
15.92839592148721
 20
2.522763538211236
 30
0.0
 11
15.92839592148721
 21
2.523603455527783
 31
0.0
  0
LINE
  5
3AB8
330
1F
100
AcDbEntity
  8
0
100
AcDbLine
 10
16.51562522625265
 20
2.762821039399099
 30
0.0
 11
16.51562522625265
 21
2.802821039399098
 31
0.0
  0
LINE
  5
3AB9
330
1F
100
AcDbEntity
  8
0
100
AcDbLine
 10
16.48952781703691
 20
2.761509503588396
 30
0.0
 11
16.48952781703691
 21
2.762821039399099
 31
0.0
  0
LINE
  5
3ABA
330
1F
100
AcDbEntity
  8
0
100
AcDbLine
 10
16.48952781703691
 20
2.781509503588399
 30
0.0
 11
16.48952781703691
 21
2.762821039399099
 31
0.0
  0
LINE
  5
3ABB
330
1F
100
AcDbEntity
  8
0
100
AcDbLine
 10
16.50245415966947
 20
2.761509503588396
 30
0.0
 11
16.50245415966948
 21
2.781509503588399
 31
0.0
  0
LINE
  5
3ABC
330
1F
100
AcDbEntity
  8
0
100
AcDbLine
 10
15.78773626301307
 20
3.066537964269517
 30
0.0
 11
15.78773626301307
 21
3.034703221721912
 31
0.0
  0
LINE
  5
3ABD
330
1F
100
AcDbEntity
  8
0
100
AcDbLine
 10
15.78773626301307
 20
2.986650877808163
 30
0.0
 11
15.78773626301307
 21
3.034703221721912
 31
0.0
  0
LINE
  5
3ABE
330
1F
100
AcDbEntity
  8
0
100
AcDbLine
 10
16.51562522625267
 20
3.004859287761011
 30
0.0
 11
16.51562522625267
 21
3.04485928776101
 31
0.0
  0
LINE
  5
3ABF
330
1F
100
AcDbEntity
  8
0
100
AcDbLine
 10
15.80066260564563
 20
2.986650877808163
 30
0.0
 11
15.80066260564563
 21
2.964972201299651
 31
0.0
  0
LINE
  5
3AC0
330
1F
100
AcDbEntity
  8
0
100
AcDbLine
 10
15.80066260564564
 20
3.02354775195031
 30
0.0
 11
15.80066260564564
 21
3.003547751950307
 31
0.0
  0
LINE
  5
3AC1
330
1F
100
AcDbEntity
  8
0
100
AcDbLine
 10
15.8135889482782
 20
3.004859287761007
 30
0.0
 11
15.8135889482782
 21
3.02354775195031
 31
0.0
  0
LINE
  5
3AC2
330
1F
100
AcDbEntity
  8
0
100
AcDbLine
 10
15.8135889482782
 20
3.003547751950307
 30
0.0
 11
15.8135889482782
 21
3.004859287761007
 31
0.0
  0
LINE
  5
3AC3
330
1F
100
AcDbEntity
  8
0
100
AcDbLine
 10
16.48952781703694
 20
3.003547751950307
 30
0.0
 11
16.48952781703694
 21
3.004859287761011
 31
0.0
  0
LINE
  5
3AC4
330
1F
100
AcDbEntity
  8
0
100
AcDbLine
 10
16.48952781703694
 20
3.02354775195031
 30
0.0
 11
16.48952781703694
 21
3.004859287761011
 31
0.0
  0
LINE
  5
3AC5
330
1F
100
AcDbEntity
  8
0
100
AcDbLine
 10
16.51538050230206
 20
2.986650877808163
 30
0.0
 11
16.51538050230206
 21
2.964972201299655
 31
0.0
  0
LINE
  5
3AC6
330
1F
100
AcDbEntity
  8
0
100
AcDbLine
 10
16.50245415966951
 20
3.003547751950307
 30
0.0
 11
16.50245415966951
 21
3.02354775195031
 31
0.0
  0
LINE
  5
3AC7
330
1F
100
AcDbEntity
  8
0
100
AcDbLine
 10
16.50245415966951
 20
2.986650877808163
 30
0.0
 11
16.50245415966949
 21
2.964972201299655
 31
0.0
  0
LINE
  5
3AC8
330
1F
100
AcDbEntity
  8
0
100
AcDbLine
 10
16.51562522625263
 20
2.674304925974045
 30
0.0
 11
16.51562522625263
 21
2.714304925974044
 31
0.0
  0
LINE
  5
3AC9
330
1F
100
AcDbEntity
  8
0
100
AcDbLine
 10
16.48952781703689
 20
2.672993390163338
 30
0.0
 11
16.48952781703689
 21
2.674304925974045
 31
0.0
  0
LINE
  5
3ACA
330
1F
100
AcDbEntity
  8
0
100
AcDbLine
 10
16.48952781703689
 20
2.692993390163344
 30
0.0
 11
16.48952781703689
 21
2.674304925974045
 31
0.0
  0
LINE
  5
3ACB
330
1F
100
AcDbEntity
  8
0
100
AcDbLine
 10
16.50245415966946
 20
2.672993390163338
 30
0.0
 11
16.50245415966946
 21
2.692993390163344
 31
0.0
  0
LINE
  5
3ACC
330
1F
100
AcDbEntity
  8
0
100
AcDbLine
 10
15.78773626301305
 20
2.905381697645974
 30
0.0
 11
15.78773626301305
 21
2.873546955098369
 31
0.0
  0
LINE
  5
3ACD
330
1F
100
AcDbEntity
  8
0
100
AcDbLine
 10
15.78773626301304
 20
2.824499715907606
 30
0.0
 11
15.78773626301305
 21
2.873546955098369
 31
0.0
  0
LINE
  5
3ACE
330
1F
100
AcDbEntity
  8
0
100
AcDbLine
 10
16.51562522625265
 20
2.843703021137468
 30
0.0
 11
16.51562522625265
 21
2.883703021137463
 31
0.0
  0
LINE
  5
3ACF
330
1F
100
AcDbEntity
  8
0
100
AcDbLine
 10
15.80066260564561
 20
2.824499715907606
 30
0.0
 11
15.80066260564561
 21
2.813956213875801
 31
0.0
  0
LINE
  5
3AD0
330
1F
100
AcDbEntity
  8
0
100
AcDbLine
 10
15.80066260564561
 20
2.862391485326767
 30
0.0
 11
15.80066260564561
 21
2.842391485326761
 31
0.0
  0
LINE
  5
3AD1
330
1F
100
AcDbEntity
  8
0
100
AcDbLine
 10
15.81358894827818
 20
2.843703021137461
 30
0.0
 11
15.81358894827818
 21
2.862391485326767
 31
0.0
  0
LINE
  5
3AD2
330
1F
100
AcDbEntity
  8
0
100
AcDbLine
 10
15.81358894827818
 20
2.842391485326761
 30
0.0
 11
15.81358894827818
 21
2.843703021137461
 31
0.0
  0
LINE
  5
3AD3
330
1F
100
AcDbEntity
  8
0
100
AcDbLine
 10
16.48952781703692
 20
2.842391485326761
 30
0.0
 11
16.48952781703692
 21
2.843703021137468
 31
0.0
  0
LINE
  5
3AD4
330
1F
100
AcDbEntity
  8
0
100
AcDbLine
 10
16.48952781703692
 20
2.862391485326764
 30
0.0
 11
16.48952781703692
 21
2.843703021137468
 31
0.0
  0
LINE
  5
3AD5
330
1F
100
AcDbEntity
  8
0
100
AcDbLine
 10
16.51538050230204
 20
2.824499715907606
 30
0.0
 11
16.51538050230204
 21
2.802821039399098
 31
0.0
  0
LINE
  5
3AD6
330
1F
100
AcDbEntity
  8
0
100
AcDbLine
 10
16.50245415966949
 20
2.842391485326761
 30
0.0
 11
16.50245415966949
 21
2.862391485326764
 31
0.0
  0
LINE
  5
3AD7
330
1F
100
AcDbEntity
  8
0
100
AcDbLine
 10
16.50245415966947
 20
2.824499715907606
 30
0.0
 11
16.50245415966947
 21
2.802821039399098
 31
0.0
  0
LINE
  5
3AD8
330
1F
100
AcDbEntity
  8
0
100
AcDbLine
 10
15.78773626301307
 20
2.986650877808163
 30
0.0
 11
15.78773626301306
 21
2.954816135260557
 31
0.0
  0
LINE
  5
3AD9
330
1F
100
AcDbEntity
  8
0
100
AcDbLine
 10
15.78773626301305
 20
2.905381697645974
 30
0.0
 11
15.78773626301306
 21
2.954816135260557
 31
0.0
  0
LINE
  5
3ADA
330
1F
100
AcDbEntity
  8
0
100
AcDbLine
 10
16.51562522625266
 20
2.924972201299656
 30
0.0
 11
16.51562522625267
 21
2.964972201299655
 31
0.0
  0
LINE
  5
3ADB
330
1F
100
AcDbEntity
  8
0
100
AcDbLine
 10
15.80066260564561
 20
2.905381697645974
 30
0.0
 11
15.80066260564561
 21
2.88370302113746
 31
0.0
  0
LINE
  5
3ADC
330
1F
100
AcDbEntity
  8
0
100
AcDbLine
 10
15.80066260564563
 20
2.943660665488955
 30
0.0
 11
15.80066260564563
 21
2.923660665488952
 31
0.0
  0
LINE
  5
3ADD
330
1F
100
AcDbEntity
  8
0
100
AcDbLine
 10
15.81358894827819
 20
2.924972201299652
 30
0.0
 11
15.81358894827819
 21
2.943660665488955
 31
0.0
  0
LINE
  5
3ADE
330
1F
100
AcDbEntity
  8
0
100
AcDbLine
 10
15.81358894827819
 20
2.923660665488952
 30
0.0
 11
15.81358894827819
 21
2.924972201299652
 31
0.0
  0
LINE
  5
3ADF
330
1F
100
AcDbEntity
  8
0
100
AcDbLine
 10
16.48952781703692
 20
2.923660665488952
 30
0.0
 11
16.48952781703692
 21
2.924972201299656
 31
0.0
  0
LINE
  5
3AE0
330
1F
100
AcDbEntity
  8
0
100
AcDbLine
 10
16.48952781703693
 20
2.943660665488955
 30
0.0
 11
16.48952781703692
 21
2.924972201299656
 31
0.0
  0
LINE
  5
3AE1
330
1F
100
AcDbEntity
  8
0
100
AcDbLine
 10
16.51538050230205
 20
2.905381697645971
 30
0.0
 11
16.51538050230205
 21
2.883703021137463
 31
0.0
  0
LINE
  5
3AE2
330
1F
100
AcDbEntity
  8
0
100
AcDbLine
 10
16.50245415966949
 20
2.923660665488952
 30
0.0
 11
16.50245415966949
 21
2.943660665488955
 31
0.0
  0
LINE
  5
3AE3
330
1F
100
AcDbEntity
  8
0
100
AcDbLine
 10
16.50245415966949
 20
2.905381697645971
 30
0.0
 11
16.50245415966949
 21
2.883703021137463
 31
0.0
  0
LINE
  5
3AE4
330
1F
100
AcDbEntity
  8
0
100
AcDbLine
 10
18.48621319932072
 20
2.537210640280511
 30
0.0
 11
16.745981341717
 21
2.537210640280513
 31
0.0
  0
LINE
  5
3AE5
330
1F
100
AcDbEntity
  8
0
100
AcDbLine
 10
18.745981341717
 20
2.637210640280512
 30
0.0
 11
16.745981341717
 21
2.637210640280514
 31
0.0
  0
LINE
  5
3AE6
330
1F
100
AcDbEntity
  8
0
100
AcDbLine
 10
16.50348749285723
 20
3.066537964269517
 30
0.0
 11
16.50245415966946
 21
2.649091087836467
 31
0.0
  0
LINE
  5
3AE7
330
1F
100
AcDbEntity
  8
0
100
AcDbLine
 10
16.51137522625262
 20
2.563603455527772
 30
0.0
 11
16.51137522625262
 21
2.435087342102715
 31
0.0
  0
LINE
  5
3AE8
330
1F
100
AcDbEntity
  8
0
100
AcDbLine
 10
16.61726113287853
 20
2.393812147610905
 30
0.0
 11
16.61829446606628
 21
2.167842794489018
 31
0.0
  0
LINE
  5
3AE9
330
1F
100
AcDbEntity
  8
0
100
AcDbLine
 10
15.92839592148722
 20
2.393812147610905
 30
0.0
 11
16.60433479024596
 21
2.393812147610905
 31
0.0
  0
LINE
  5
3AEA
330
1F
100
AcDbEntity
  8
0
100
AcDbLine
 10
15.77261335640858
 20
3.154721687116801
 30
0.0
 11
15.67261335640858
 21
3.154721687116801
 31
0.0
  0
LINE
  5
3AEB
330
1F
100
AcDbEntity
  8
0
100
AcDbLine
 10
18.58606271080127
 20
2.537210640280511
 30
0.0
 11
18.48621319932072
 21
2.537210640280511
 31
0.0
  0
LINE
  5
3AEC
330
1F
100
AcDbEntity
  8
0
100
AcDbLine
 10
18.74598134171698
 20
2.537210640280511
 30
0.0
 11
18.58606271080127
 21
2.537210640280511
 31
0.0
  0
LINE
  5
3AED
330
1F
100
AcDbEntity
  8
0
100
AcDbLine
 10
18.58606271080127
 20
2.537210640280511
 30
0.0
 11
18.74598134171698
 21
2.537210640280511
 31
0.0
  0
LINE
  5
3AEE
330
1F
100
AcDbEntity
  8
0
100
AcDbLine
 10
18.74598134171698
 20
2.537210640280511
 30
0.0
 11
18.74598134171698
 21
2.437210640280511
 31
0.0
  0
LINE
  5
3AEF
330
1F
100
AcDbEntity
  8
0
100
AcDbLine
 10
18.74598134171698
 20
2.437210640280511
 30
0.0
 11
18.64598134171698
 21
2.437210640280511
 31
0.0
  0
LINE
  5
3AF0
330
1F
100
AcDbEntity
  8
0
100
AcDbLine
 10
18.64598134171698
 20
2.437210640280511
 30
0.0
 11
18.64598134171697
 21
2.537210640280511
 31
0.0
  0
LINE
  5
3AF1
330
1F
100
AcDbEntity
  8
0
100
AcDbLine
 10
18.74598134171698
 20
2.314497316494865
 30
0.0
 11
20.54598134171699
 21
2.314497316494865
 31
0.0
  0
LINE
  5
3AF2
330
1F
100
AcDbEntity
  8
0
100
AcDbLine
 10
20.54598134171699
 20
2.314497316494865
 30
0.0
 11
20.54598134171699
 21
2.414497316494866
 31
0.0
  0
LINE
  5
3AF3
330
1F
100
AcDbEntity
  8
0
100
AcDbLine
 10
20.54598134171699
 20
2.414497316494866
 30
0.0
 11
18.74598134171698
 21
2.414497316494866
 31
0.0
  0
LINE
  5
3AF4
330
1F
100
AcDbEntity
  8
0
100
AcDbLine
 10
20.30915710773557
 20
2.31449732636122
 30
0.0
 11
20.30915710773557
 21
1.719115125050123
 31
0.0
  0
LINE
  5
3AF5
330
1F
100
AcDbEntity
  8
0
100
AcDbLine
 10
19.76010709343422
 20
2.31449732636122
 30
0.0
 11
19.76010709343422
 21
1.719115125050123
 31
0.0
  0
LINE
  5
3AF6
330
1F
100
AcDbEntity
  8
0
100
AcDbLine
 10
20.00019599628073
 20
2.31449732636122
 30
0.0
 11
20.00019599628073
 21
1.719115125050123
 31
0.0
  0
LINE
  5
3AF7
330
1F
100
AcDbEntity
  8
0
100
AcDbLine
 10
20.03849999628073
 20
2.31449732636122
 30
0.0
 11
20.03849999628073
 21
1.719115125050123
 31
0.0
  0
LINE
  5
3AF8
330
1F
100
AcDbEntity
  8
0
100
AcDbLine
 10
19.72180309343421
 20
2.31449732636122
 30
0.0
 11
19.72180309343421
 21
1.719115125050123
 31
0.0
  0
LINE
  5
3AF9
330
1F
100
AcDbEntity
  8
0
100
AcDbLine
 10
19.48493747840404
 20
2.31449732636122
 30
0.0
 11
19.48493747840404
 21
1.719115125050123
 31
0.0
  0
LINE
  5
3AFA
330
1F
100
AcDbEntity
  8
0
100
AcDbLine
 10
19.44663347840404
 20
2.31449732636122
 30
0.0
 11
19.44663347840404
 21
1.719115125050123
 31
0.0
  0
LINE
  5
3AFB
330
1F
100
AcDbEntity
  8
0
100
AcDbLine
 10
20.27085310773557
 20
2.31449732636122
 30
0.0
 11
20.27085310773557
 21
1.719115125050123
 31
0.0
  0
LINE
  5
3AFC
330
1F
100
AcDbEntity
  8
0
100
AcDbLine
 10
19.17650112568107
 20
2.31449732636122
 30
0.0
 11
19.17650112568107
 21
1.719115125050123
 31
0.0
  0
LINE
  5
3AFD
330
1F
100
AcDbEntity
  8
0
100
AcDbLine
 10
19.21480512568107
 20
2.31449732636122
 30
0.0
 11
19.21480512568107
 21
1.719115125050123
 31
0.0
  0
LINE
  5
3AFE
330
1F
100
AcDbEntity
  8
0
100
AcDbLine
 10
18.74598134171699
 20
1.719115125050123
 30
0.0
 11
20.54598134171699
 21
1.719115125050123
 31
0.0
  0
LINE
  5
3AFF
330
1F
100
AcDbEntity
  8
0
100
AcDbLine
 10
20.54598134171699
 20
1.719115125050123
 30
0.0
 11
20.54598134171699
 21
1.619115125050129
 31
0.0
  0
LINE
  5
3B00
330
1F
100
AcDbEntity
  8
0
100
AcDbLine
 10
20.54598134171699
 20
1.619115125050129
 30
0.0
 11
18.74598134171698
 21
1.619115125050129
 31
0.0
  0
LINE
  5
3B01
330
1F
100
AcDbEntity
  8
0
100
AcDbLine
 10
20.54598134171699
 20
1.59477724045611
 30
0.0
 11
20.54598134171699
 21
1.494777240456109
 31
0.0
  0
LINE
  5
3B02
330
1F
100
AcDbEntity
  8
0
100
AcDbLine
 10
20.54598134171699
 20
1.494777240456109
 30
0.0
 11
20.44598134171698
 21
1.494777240456109
 31
0.0
  0
LINE
  5
3B03
330
1F
100
AcDbEntity
  8
0
100
AcDbLine
 10
20.44598134171698
 20
1.494777240456109
 30
0.0
 11
20.44598134171698
 21
1.59477724045611
 31
0.0
  0
LINE
  5
3B04
330
1F
100
AcDbEntity
  8
0
100
AcDbLine
 10
20.54598134171699
 20
2.437210640280511
 30
0.0
 11
20.54598134171699
 21
2.537210640280505
 31
0.0
  0
LINE
  5
3B05
330
1F
100
AcDbEntity
  8
0
100
AcDbLine
 10
20.54598134171699
 20
2.537210640280505
 30
0.0
 11
20.44598134171698
 21
2.537210640280505
 31
0.0
  0
LINE
  5
3B06
330
1F
100
AcDbEntity
  8
0
100
AcDbLine
 10
20.44598134171698
 20
2.537210640280505
 30
0.0
 11
20.44598134171698
 21
2.437210640280511
 31
0.0
  0
LINE
  5
3B07
330
1F
100
AcDbEntity
  8
0
100
AcDbLine
 10
18.90409106901816
 20
2.314497329610745
 30
0.0
 11
18.90409106901816
 21
1.719115128299655
 31
0.0
  0
LINE
  5
3B08
330
1F
100
AcDbEntity
  8
0
100
AcDbLine
 10
18.94239506901816
 20
2.314497329610745
 30
0.0
 11
18.94239506901816
 21
1.719115128299655
 31
0.0
  0
LINE
  5
3B09
330
1F
100
AcDbEntity
  8
0
100
AcDbLine
 10
20.54598134171699
 20
1.619115125050129
 30
0.0
 11
20.54598134171699
 21
1.59477724045611
 31
0.0
  0
LINE
  5
3B0A
330
1F
100
AcDbEntity
  8
0
100
AcDbLine
 10
20.54598134171699
 20
1.59477724045611
 30
0.0
 11
18.74598134171698
 21
1.594777240456103
 31
0.0
  0
LINE
  5
3B0B
330
1F
100
AcDbEntity
  8
0
100
AcDbLine
 10
20.54598134171699
 20
2.414497316494866
 30
0.0
 11
20.54598134171699
 21
2.437210640280511
 31
0.0
  0
LINE
  5
3B0C
330
1F
100
AcDbEntity
  8
0
100
AcDbLine
 10
20.54598134171699
 20
2.437210640280511
 30
0.0
 11
18.74598134171698
 21
2.437210640280511
 31
0.0
  0
LINE
  5
3B0D
330
1F
100
AcDbEntity
  8
0
100
AcDbLine
 10
18.74598134171698
 20
2.437210640280511
 30
0.0
 11
18.84598134171698
 21
2.437210640280511
 31
0.0
  0
LINE
  5
3B0E
330
1F
100
AcDbEntity
  8
0
100
AcDbLine
 10
18.84598134171698
 20
2.437210640280511
 30
0.0
 11
18.84598134171696
 21
2.537210640280511
 31
0.0
  0
LINE
  5
3B0F
330
1F
100
AcDbEntity
  8
0
100
AcDbLine
 10
18.84598134171696
 20
2.537210640280511
 30
0.0
 11
18.74598134171698
 21
2.537210640280511
 31
0.0
  0
LINE
  5
3B10
330
1F
100
AcDbEntity
  8
0
100
AcDbLine
 10
18.74598134171698
 20
2.314497316494865
 30
0.0
 11
18.74598134171698
 21
2.437210640280511
 31
0.0
  0
LINE
  5
3B11
330
1F
100
AcDbEntity
  8
0
100
AcDbLine
 10
18.74598134171699
 20
1.719115125050123
 30
0.0
 11
18.74598134171698
 21
1.594777240456103
 31
0.0
  0
LINE
  5
3B12
330
1F
100
AcDbEntity
  8
0
100
AcDbLine
 10
18.74598134171698
 20
1.594777240456103
 30
0.0
 11
18.74598134171698
 21
1.494777240456103
 31
0.0
  0
LINE
  5
3B13
330
1F
100
AcDbEntity
  8
0
100
AcDbLine
 10
18.74598134171698
 20
1.494777240456103
 30
0.0
 11
18.84598134171698
 21
1.494777240456103
 31
0.0
  0
LINE
  5
3B14
330
1F
100
AcDbEntity
  8
0
100
AcDbLine
 10
18.84598134171698
 20
1.494777240456103
 30
0.0
 11
18.84598134171699
 21
1.594777240456103
 31
0.0
  0
LINE
  5
3B15
330
1F
100
AcDbEntity
  8
0
100
AcDbLine
 10
18.745981341717
 20
2.637210640280512
 30
0.0
 11
18.84598134171694
 21
2.637210640280514
 31
0.0
  0
LINE
  5
3B16
330
1F
100
AcDbEntity
  8
0
100
AcDbLine
 10
18.84598134171694
 20
2.637210640280514
 30
0.0
 11
18.84598134171696
 21
2.537210640280511
 31
0.0
  0
LINE
  5
3B1B
330
1F
100
AcDbEntity
  8
STREFA BEZPIECZEŃSTWA
100
AcDbLine
 10
18.54948917267071
 20
4.437210640280508
 30
0.0
 11
22.34598134171699
 21
4.437210640280506
 31
0.0
  0
LINE
  5
3B1E
330
1F
100
AcDbEntity
  8
STREFA BEZPIECZEŃSTWA
100
AcDbLine
 10
18.54948917267071
 20
4.954721687116816
 30
0.0
 11
18.54948917267071
 21
4.437210640280508
 31
0.0
  0
LINE
  5
3B33
330
1F
100
AcDbEntity
  8
STREFA BEZPIECZEŃSTWA
100
AcDbLine
 10
16.94598134171698
 20
-0.3843883612489401
 30
0.0
 11
16.94598134171699
 21
0.2055560117019164
 31
0.0
  0
LINE
  5
3B34
330
1F
100
AcDbEntity
  8
STREFA BEZPIECZEŃSTWA
100
AcDbLine
 10
16.94598134171699
 20
0.2055560117019164
 30
0.0
 11
13.87292928980404
 21
0.2055560117019157
 31
0.0
  0
LINE
  5
3B35
102
{ACAD_REACTORS
330
3B4B
330
3B5F
102
}
330
1F
100
AcDbEntity
  8
STREFA BEZPIECZEŃSTWA
100
AcDbLine
 10
13.87292928980404
 20
5.073470089674371
 30
0.0
 11
18.54948917267071
 21
5.07347008967439
 31
0.0
  0
LINE
  5
3B36
102
{ACAD_REACTORS
330
3B5F
102
}
330
1F
100
AcDbEntity
  8
STREFA BEZPIECZEŃSTWA
100
AcDbLine
 10
16.94598134171698
 20
-0.3843883612489401
 30
0.0
 11
22.34598134171699
 21
-0.3843883612489406
 31
0.0
  0
LINE
  5
3B37
102
{ACAD_REACTORS
330
3B4B
102
}
330
1F
100
AcDbEntity
  8
STREFA BEZPIECZEŃSTWA
100
AcDbLine
 10
22.34598134171699
 20
4.437210640280506
 30
0.0
 11
22.34598134171699
 21
-0.3052227595438906
 31
0.0
  0
DIMENSION
  5
3B38
102
{ACAD_XDICTIONARY
360
3B43
102
}
102
{ACAD_REACTORS
330
3B4B
102
}
330
1F
100
AcDbEntity
  8
WYMIAR
100
AcDbDimension
  2
*D3
 10
22.34598134171699
 20
5.69988425144276
 30
0.0
 11
18.10945531576052
 21
5.90988425144276
 31
0.0
 70
    32
 71
     5
 42
8.473052051912947
  3
AR SKALA 1-50
100
AcDbAlignedDimension
 13
13.87292928980404
 23
5.073470089674371
 33
0.0
 14
22.34598134171699
 24
4.437210640280506
 34
0.0
100
AcDbRotatedDimension
  0
DIMENSION
  5
3B4C
102
{ACAD_XDICTIONARY
360
3B57
102
}
102
{ACAD_REACTORS
330
3B5F
102
}
330
1F
100
AcDbEntity
  8
WYMIAR
100
AcDbDimension
  2
*D4
 10
13.07170979394782
 20
-0.3843883612489389
 30
0.0
 11
12.86170979394781
 21
2.344540864212718
 31
0.0
 70
    32
 71
     5
 42
5.45785845092331
  3
AR SKALA 1-50
100
AcDbAlignedDimension
 13
13.87292928980404
 23
5.073470089674371
 33
0.0
 14
16.94598134171698
 24
-0.3843883612489401
 34
0.0
 50
90.0
100
AcDbRotatedDimension
  0
LINE
  5
3B75
330
1F
100
AcDbEntity
  8
STREFA BEZPIECZEŃSTWA
100
AcDbLine
 10
13.87292928980404
 20
5.073470089674371
 30
0.0
 11
13.87292928980404
 21
0.2055560117019157
 31
0.0
  0
VIEWPORT
  5
7CA
330
1B
100
AcDbEntity
 67
     1
  8
0
100
AcDbViewport
 10
157.4232438655912
 20
109.683291617914
 30
0.0
 40
558.8269503910331
 41
231.2072255910571
 68
     1
 69
     1
 12
157.4232438655912
 22
109.683291617914
 13
0.0
 23
0.0
 14
10.0
 24
10.0
 15
10.0
 25
10.0
 16
0.0
 26
0.0
 36
1.0
 17
0.0
 27
0.0
 37
0.0
 42
50.0
 43
0.0
 44
0.0
 45
231.2072255910571
 50
0.0
 51
0.0
 72
   100
 90
   819232
  1

281
     0
 71
     1
 74
     0
110
0.0
120
0.0
130
0.0
111
1.0
121
0.0
131
0.0
112
0.0
122
1.0
132
0.0
 79
     0
146
0.0
170
     0
  0
VIEWPORT
  5
99A
330
1B
100
AcDbEntity
 67
     1
  8
Defpoints
100
AcDbViewport
 10
151.5855934681565
 20
104.8621726199724
 30
0.0
 40
290.0480970456033
 41
203.1599664902751
 68
     2
 69
     2
 12
19.58517181505603
 22
3.71973794742965
 13
0.0
 23
0.0
 14
0.5
 24
0.5
 15
0.5
 25
0.5
 16
0.0
 26
0.0
 36
1.0
 17
0.0
 27
0.0
 37
-1000.0
 42
50.0
 43
4.148984367261674
 44
9.217858496371269
 45
10.15799834075194
 50
0.0
 51
0.0
 72
   100
 90
   819296
  1

281
     0
 71
     1
 74
     0
110
0.0
120
0.0
130
0.0
111
1.0
121
0.0
131
0.0
112
0.0
122
1.0
132
0.0
 79
     0
146
0.0
170
     0
  0
ENDSEC
  0
SECTION
  2
OBJECTS
  0
DICTIONARY
  5
C
330
0
100
AcDbDictionary
281
     1
  3
ACAD_COLOR
350
4B9
  3
ACAD_GROUP
350
D
  3
ACAD_LAYOUT
350
1A
  3
ACAD_MATERIAL
350
3B
  3
ACAD_MLEADERSTYLE
350
489
  3
ACAD_MLINESTYLE
350
17
  3
ACAD_PLOTSETTINGS
350
19
  3
ACAD_PLOTSTYLENAME
350
E
  3
ACAD_SCALELIST
350
31C6
  3
ACAD_TABLESTYLE
350
4BA
  3
ACAD_VISUALSTYLE
350
2A
  3
ACDB_RECOMPOSE_DATA
350
3B7E
  3
AcDbVariableDictionary
350
487
  0
DICTIONARY
  5
84C
330
8
100
AcDbDictionary
280
     1
281
     1
  0
DICTIONARY
  5
7D1
330
2
100
AcDbDictionary
280
     1
281
     1
  3
ACAD_LAYERFILTERS
360
9F9
  3
ACAD_LAYERSTATES
360
7D2
  3
ACLYDICTIONARY
360
9F8
  0
DICTIONARY
  5
3B76
330
10
100
AcDbDictionary
280
     1
281
     1
  3
ADSK_XREC_LAYER_RECONCILED
360
3B77
  0
DICTIONARY
  5
3B78
330
87B
100
AcDbDictionary
280
     1
281
     1
  3
ADSK_XREC_LAYER_RECONCILED
360
3B79
  0
DICTIONARY
  5
3B7A
330
87D
100
AcDbDictionary
280
     1
281
     1
  3
ADSK_XREC_LAYER_RECONCILED
360
3B7B
  0
DICTIONARY
  5
5F8
330
1F
100
AcDbDictionary
280
     1
281
     1
  3
ACAD_SORTENTS
360
5F9
  0
DICTIONARY
  5
3B43
330
3B38
100
AcDbDictionary
280
     1
281
     1
  3
ACAD_DIMASSOC
360
3B4B
  0
DICTIONARY
  5
3B57
330
3B4C
100
AcDbDictionary
280
     1
281
     1
  3
ACAD_DIMASSOC
360
3B5F
  0
DICTIONARY
  5
4B9
102
{ACAD_REACTORS
330
C
102
}
330
C
100
AcDbDictionary
281
     1
  0
DICTIONARY
  5
D
102
{ACAD_REACTORS
330
C
102
}
330
C
100
AcDbDictionary
281
     1
  0
DICTIONARY
  5
1A
102
{ACAD_REACTORS
330
C
102
}
330
C
100
AcDbDictionary
281
     1
  3
Layout1
350
1E
  3
Model
350
22
  0
DICTIONARY
  5
3B
102
{ACAD_REACTORS
330
C
102
}
330
C
100
AcDbDictionary
281
     1
  3
ByBlock
350
3D
  3
ByLayer
350
3C
  3
Global
350
3E
  0
DICTIONARY
  5
489
102
{ACAD_REACTORS
330
C
102
}
330
C
100
AcDbDictionary
281
     1
  3
Standard
350
31E8
  0
DICTIONARY
  5
17
102
{ACAD_REACTORS
330
C
102
}
330
C
100
AcDbDictionary
281
     1
  3
Standard
350
18
  0
DICTIONARY
  5
19
102
{ACAD_REACTORS
330
C
102
}
330
C
100
AcDbDictionary
281
     1
  0
ACDBDICTIONARYWDFLT
  5
E
102
{ACAD_REACTORS
330
C
102
}
330
C
100
AcDbDictionary
281
     1
  3
Normal
350
F
100
AcDbDictionaryWithDefault
340
F
  0
DICTIONARY
  5
31C6
102
{ACAD_REACTORS
330
C
102
}
330
C
100
AcDbDictionary
281
     1
  3
A0
350
31C7
  3
A1
350
31C8
  3
A2
350
31C9
  3
A3
350
31CA
  3
A4
350
31CB
  3
A5
350
31CC
  3
A6
350
31CD
  3
A7
350
31CE
  3
A8
350
31CF
  3
A9
350
31D0
  3
B0
350
31D1
  3
B1
350
31D2
  3
B2
350
31D3
  3
B3
350
31D4
  3
B4
350
31D5
  3
B5
350
31D6
  3
B6
350
31D7
  3
B7
350
31D8
  3
B8
350
31D9
  3
B9
350
31DA
  3
C0
350
31DB
  3
C1
350
31DC
  3
C2
350
31DD
  3
C3
350
31DE
  3
C4
350
31DF
  3
C5
350
31E0
  3
C6
350
31E1
  3
C7
350
31E2
  3
C8
350
31E3
  3
C9
350
31E4
  3
D0
350
31E5
  3
D1
350
31E6
  3
D2
350
31E7
  0
DICTIONARY
  5
4BA
102
{ACAD_REACTORS
330
C
102
}
330
C
100
AcDbDictionary
281
     1
  3
Standard
350
4BB
  0
DICTIONARY
  5
2A
102
{ACAD_REACTORS
330
C
102
}
330
C
100
AcDbDictionary
281
     1
  3
2dWireframe
350
2F
  3
3D Hidden
350
A48
  3
3dWireframe
350
A47
  3
Basic
350
32
  3
Brighten
350
36
  3
ColorChange
350
3A
  3
Conceptual
350
A49
  3
Dim
350
35
  3
Facepattern
350
39
  3
Flat
350
2B
  3
FlatWithEdges
350
2C
  3
Gouraud
350
2D
  3
GouraudWithEdges
350
2E
  3
Linepattern
350
38
  3
Realistic
350
A4A
  3
Thicken
350
37
  0
XRECORD
  5
3B7E
102
{ACAD_REACTORS
330
C
102
}
330
C
100
AcDbXrecord
280
     1
 90
        1
330
4BB
  0
DICTIONARY
  5
487
102
{ACAD_REACTORS
330
C
102
}
330
C
100
AcDbDictionary
281
     1
  3
CANNOSCALE
350
3B81
  3
CMLEADERSTYLE
350
3B7F
  3
CTABLESTYLE
350
5FE
  3
DIMASSOC
350
48A
  3
HIDETEXT
350
48B
  3
INDEXCTL
350
86B
  3
LIGHTINGUNITS
350
3B82
  3
MSLTSCALE
350
3B80
  3
SORTENTS
350
86A
  0
DICTIONARY
  5
9F9
102
{ACAD_REACTORS
330
7D1
102
}
330
7D1
100
AcDbDictionary
281
     1
  0
DICTIONARY
  5
7D2
102
{ACAD_REACTORS
330
7D1
102
}
330
7D1
100
AcDbDictionary
281
     1
  0
DICTIONARY
  5
9F8
102
{ACAD_REACTORS
330
7D1
102
}
330
7D1
100
AcDbDictionary
281
     1
1001
ACAD
1000
<All
  0
XRECORD
  5
3B77
102
{ACAD_REACTORS
330
3B76
102
}
330
3B76
100
AcDbXrecord
280
     1
290
     1
  0
XRECORD
  5
3B79
102
{ACAD_REACTORS
330
3B78
102
}
330
3B78
100
AcDbXrecord
280
     1
290
     1
  0
XRECORD
  5
3B7B
102
{ACAD_REACTORS
330
3B7A
102
}
330
3B7A
100
AcDbXrecord
280
     1
290
     1
  0
SORTENTSTABLE
  5
5F9
102
{ACAD_REACTORS
330
5F8
102
}
330
5F8
100
AcDbSortentsTable
330
1F
  0
DIMASSOC
  5
3B4B
102
{ACAD_REACTORS
330
3B43
102
}
330
3B43
100
AcDbDimAssoc
330
3B38
 90
        3
 70
     0
 71
     0
  1
AcDbOsnapPointRef
 72
    13
331
3B35
 73
     2
 91
        0
 40
0.0
 10
0.0
 20
0.0
 30
2.000000000000000E+50
 75
     0
  1
AcDbOsnapPointRef
 72
    13
331
3B37
 73
     2
 91
        0
 40
0.0
 10
0.0
 20
0.0
 30
2.000000000000000E+50
 75
     0
  0
DIMASSOC
  5
3B5F
102
{ACAD_REACTORS
330
3B57
102
}
330
3B57
100
AcDbDimAssoc
330
3B4C
 90
        3
 70
     0
 71
     0
  1
AcDbOsnapPointRef
 72
    13
331
3B35
 73
     2
 91
        0
 40
0.0
 10
0.0
 20
0.0
 30
2.000000000000000E+50
 75
     0
  1
AcDbOsnapPointRef
 72
    13
331
3B36
 73
     2
 91
        0
 40
0.0
 10
0.0
 20
0.0
 30
2.000000000000000E+50
 75
     0
  0
LAYOUT
  5
1E
102
{ACAD_XDICTIONARY
360
7D4
102
}
102
{ACAD_REACTORS
330
1A
102
}
330
1A
100
AcDbPlotSettings
  1

  2
Bullzip PDF Printer
  4
A4
  6

 40
3.174999952316284
 41
3.174999952316284
 42
3.175003051757812
 43
3.17498779296875
 44
209.8886566162109
 45
297.0530090332031
 46
0.0
 47
0.0
 48
6.561544945354853
 49
3.282189374834842
140
296.6096419909582
141
206.4421558651099
142
1.0
143
1.0
 70
   672
 72
     1
 73
     1
 74
     4
  7
RINTAL 1.10.ctb
 75
    16
147
25.4
 76
     0
 77
     2
 78
   300
148
-6.561544945354853
149
-3.282189374834842
100
AcDbLayout
  1
Layout1
 70
     0
 71
     1
 10
3.386557152386103
 20
0.1071894225185588
 11
300.4395661855892
 21
209.9958460387295
 12
0.0
 22
0.0
 32
0.0
 14
6.550360952942241
 24
3.271404891950567
 34
-0.0000000000000058
 15
296.6185267327722
 25
206.4473139376702
 35
0.0000000000000104
146
0.0
 13
0.0
 23
0.0
 33
0.0
 16
1.0
 26
0.0
 36
0.0
 17
0.0
 27
1.0
 37
0.0
 76
     0
330
1B
331
7CA
1001
ACAD_PSEXT
1000
Bullzip PDF Printer
1000
Bullzip PDF Printer
1000
BULLZIP
1000
Bullzip PDF Printer 7.1.0.1218
1070
     0
  0
LAYOUT
  5
22
102
{ACAD_REACTORS
330
1A
102
}
330
1A
100
AcDbPlotSettings
  1

  2
none_device
  4

  6

 40
0.0
 41
0.0
 42
0.0
 43
0.0
 44
0.0
 45
0.0
 46
0.0
 47
0.0
 48
0.0
 49
0.0
140
0.0
141
0.0
142
1.0
143
1.0
 70
  1712
 72
     0
 73
     0
 74
     0
  7

 75
     0
147
1.0
 76
     0
 77
     2
 78
   300
148
0.0
149
0.0
100
AcDbLayout
  1
Model
 70
     1
 71
     0
 10
0.0
 20
0.0
 11
12.0
 21
9.0
 12
0.0
 22
0.0
 32
0.0
 14
1.000000000000000E+20
 24
1.000000000000000E+20
 34
1.000000000000000E+20
 15
-1.000000000000000E+20
 25
-1.000000000000000E+20
 35
-1.000000000000000E+20
146
0.0
 13
0.0
 23
0.0
 33
0.0
 16
1.0
 26
0.0
 36
0.0
 17
0.0
 27
1.0
 37
0.0
 76
     0
330
1F
331
29
  0
MATERIAL
  5
3D
102
{ACAD_XDICTIONARY
360
3B90
102
}
102
{ACAD_REACTORS
330
3B
102
}
330
3B
100
AcDbMaterial
  1
ByBlock
 73
     1
 78
     1
172
     1
176
     1
270
     1
274
     1
  0
MATERIAL
  5
3C
102
{ACAD_XDICTIONARY
360
3B8E
102
}
102
{ACAD_REACTORS
330
3B
102
}
330
3B
100
AcDbMaterial
  1
ByLayer
 73
     1
 78
     1
172
     1
176
     1
270
     1
274
     1
  0
MATERIAL
  5
3E
102
{ACAD_XDICTIONARY
360
3B92
102
}
102
{ACAD_REACTORS
330
3B
102
}
330
3B
100
AcDbMaterial
  1
Global
 73
     1
 78
     1
172
     1
176
     1
270
     1
274
     1
  0
MLEADERSTYLE
  5
31E8
102
{ACAD_REACTORS
330
489
102
}
330
489
100
AcDbMLeaderStyle
170
     2
171
     1
172
     0
 90
        2
 40
0.0
 41
0.0
173
     1
 91
-1056964608
340
14
 92
       -2
290
     1
 42
0.09
291
     1
 43
0.36
  3
Standard
 44
0.18
300

342
11
174
     1
178
     6
175
     1
176
     0
 93
-1056964608
 45
0.18
292
     0
297
     0
 46
0.18
 94
-1056964608
 47
1.0
 49
1.0
140
1.0
293
     1
141
0.0
294
     1
177
     0
142
1.0
295
     0
296
     0
143
0.125
1001
ACAD_MLEADERVER
1070
     2
  0
MLINESTYLE
  5
18
102
{ACAD_REACTORS
330
17
102
}
330
17
100
AcDbMlineStyle
  2
STANDARD
 70
     0
  3

 62
   256
 51
90.0
 52
90.0
 71
     2
 49
0.5
 62
   256
  6
BYLAYER
 49
-0.5
 62
   256
  6
BYLAYER
  0
ACDBPLACEHOLDER
  5
F
102
{ACAD_REACTORS
330
E
102
}
330
E
  0
SCALE
  5
31C7
102
{ACAD_REACTORS
330
31C6
102
}
330
31C6
100
AcDbScale
 70
     0
300
1:1
140
1.0
141
1.0
290
     1
  0
SCALE
  5
31C8
102
{ACAD_REACTORS
330
31C6
102
}
330
31C6
100
AcDbScale
 70
     0
300
1:2
140
1.0
141
2.0
290
     0
  0
SCALE
  5
31C9
102
{ACAD_REACTORS
330
31C6
102
}
330
31C6
100
AcDbScale
 70
     0
300
1:4
140
1.0
141
4.0
290
     0
  0
SCALE
  5
31CA
102
{ACAD_REACTORS
330
31C6
102
}
330
31C6
100
AcDbScale
 70
     0
300
1:5
140
1.0
141
5.0
290
     0
  0
SCALE
  5
31CB
102
{ACAD_REACTORS
330
31C6
102
}
330
31C6
100
AcDbScale
 70
     0
300
1:8
140
1.0
141
8.0
290
     0
  0
SCALE
  5
31CC
102
{ACAD_REACTORS
330
31C6
102
}
330
31C6
100
AcDbScale
 70
     0
300
1:10
140
1.0
141
10.0
290
     0
  0
SCALE
  5
31CD
102
{ACAD_REACTORS
330
31C6
102
}
330
31C6
100
AcDbScale
 70
     0
300
1:16
140
1.0
141
16.0
290
     0
  0
SCALE
  5
31CE
102
{ACAD_REACTORS
330
31C6
102
}
330
31C6
100
AcDbScale
 70
     0
300
1:20
140
1.0
141
20.0
290
     0
  0
SCALE
  5
31CF
102
{ACAD_REACTORS
330
31C6
102
}
330
31C6
100
AcDbScale
 70
     0
300
1:30
140
1.0
141
30.0
290
     0
  0
SCALE
  5
31D0
102
{ACAD_REACTORS
330
31C6
102
}
330
31C6
100
AcDbScale
 70
     0
300
1:40
140
1.0
141
40.0
290
     0
  0
SCALE
  5
31D1
102
{ACAD_REACTORS
330
31C6
102
}
330
31C6
100
AcDbScale
 70
     0
300
1:50
140
1.0
141
50.0
290
     0
  0
SCALE
  5
31D2
102
{ACAD_REACTORS
330
31C6
102
}
330
31C6
100
AcDbScale
 70
     0
300
1:100
140
1.0
141
100.0
290
     0
  0
SCALE
  5
31D3
102
{ACAD_REACTORS
330
31C6
102
}
330
31C6
100
AcDbScale
 70
     0
300
2:1
140
2.0
141
1.0
290
     0
  0
SCALE
  5
31D4
102
{ACAD_REACTORS
330
31C6
102
}
330
31C6
100
AcDbScale
 70
     0
300
4:1
140
4.0
141
1.0
290
     0
  0
SCALE
  5
31D5
102
{ACAD_REACTORS
330
31C6
102
}
330
31C6
100
AcDbScale
 70
     0
300
8:1
140
8.0
141
1.0
290
     0
  0
SCALE
  5
31D6
102
{ACAD_REACTORS
330
31C6
102
}
330
31C6
100
AcDbScale
 70
     0
300
10:1
140
10.0
141
1.0
290
     0
  0
SCALE
  5
31D7
102
{ACAD_REACTORS
330
31C6
102
}
330
31C6
100
AcDbScale
 70
     0
300
100:1
140
100.0
141
1.0
290
     0
  0
SCALE
  5
31D8
102
{ACAD_REACTORS
330
31C6
102
}
330
31C6
100
AcDbScale
 70
     0
300
1/128" = 1'-0"
140
0.0078125
141
12.0
290
     0
  0
SCALE
  5
31D9
102
{ACAD_REACTORS
330
31C6
102
}
330
31C6
100
AcDbScale
 70
     0
300
1/64" = 1'-0"
140
0.015625
141
12.0
290
     0
  0
SCALE
  5
31DA
102
{ACAD_REACTORS
330
31C6
102
}
330
31C6
100
AcDbScale
 70
     0
300
1/32" = 1'-0"
140
0.03125
141
12.0
290
     0
  0
SCALE
  5
31DB
102
{ACAD_REACTORS
330
31C6
102
}
330
31C6
100
AcDbScale
 70
     0
300
1/16" = 1'-0"
140
0.0625
141
12.0
290
     0
  0
SCALE
  5
31DC
102
{ACAD_REACTORS
330
31C6
102
}
330
31C6
100
AcDbScale
 70
     0
300
3/32" = 1'-0"
140
0.09375
141
12.0
290
     0
  0
SCALE
  5
31DD
102
{ACAD_REACTORS
330
31C6
102
}
330
31C6
100
AcDbScale
 70
     0
300
1/8" = 1'-0"
140
0.125
141
12.0
290
     0
  0
SCALE
  5
31DE
102
{ACAD_REACTORS
330
31C6
102
}
330
31C6
100
AcDbScale
 70
     0
300
3/16" = 1'-0"
140
0.1875
141
12.0
290
     0
  0
SCALE
  5
31DF
102
{ACAD_REACTORS
330
31C6
102
}
330
31C6
100
AcDbScale
 70
     0
300
1/4" = 1'-0"
140
0.25
141
12.0
290
     0
  0
SCALE
  5
31E0
102
{ACAD_REACTORS
330
31C6
102
}
330
31C6
100
AcDbScale
 70
     0
300
3/8" = 1'-0"
140
0.375
141
12.0
290
     0
  0
SCALE
  5
31E1
102
{ACAD_REACTORS
330
31C6
102
}
330
31C6
100
AcDbScale
 70
     0
300
1/2" = 1'-0"
140
0.5
141
12.0
290
     0
  0
SCALE
  5
31E2
102
{ACAD_REACTORS
330
31C6
102
}
330
31C6
100
AcDbScale
 70
     0
300
3/4" = 1'-0"
140
0.75
141
12.0
290
     0
  0
SCALE
  5
31E3
102
{ACAD_REACTORS
330
31C6
102
}
330
31C6
100
AcDbScale
 70
     0
300
1" = 1'-0"
140
1.0
141
12.0
290
     0
  0
SCALE
  5
31E4
102
{ACAD_REACTORS
330
31C6
102
}
330
31C6
100
AcDbScale
 70
     0
300
1-1/2" = 1'-0"
140
1.5
141
12.0
290
     0
  0
SCALE
  5
31E5
102
{ACAD_REACTORS
330
31C6
102
}
330
31C6
100
AcDbScale
 70
     0
300
3" = 1'-0"
140
3.0
141
12.0
290
     0
  0
SCALE
  5
31E6
102
{ACAD_REACTORS
330
31C6
102
}
330
31C6
100
AcDbScale
 70
     0
300
6" = 1'-0"
140
6.0
141
12.0
290
     0
  0
SCALE
  5
31E7
102
{ACAD_REACTORS
330
31C6
102
}
330
31C6
100
AcDbScale
 70
     0
300
1'-0" = 1'-0"
140
12.0
141
12.0
290
     0
  0
TABLESTYLE
  5
4BB
102
{ACAD_XDICTIONARY
360
3B7C
102
}
102
{ACAD_REACTORS
330
4BA
102
}
330
4BA
100
AcDbTableStyle
  3
Standard
 70
     0
 71
     0
 40
0.06
 41
0.06
280
     0
281
     0
  7
Standard
140
0.18
170
     2
 62
     0
 63
     7
283
     0
274
    -2
284
     1
 64
     0
275
    -2
285
     1
 65
     0
276
    -2
286
     1
 66
     0
277
    -2
287
     1
 67
     0
278
    -2
288
     1
 68
     0
279
    -2
289
     1
 69
     0
  7
Standard
140
0.25
170
     5
 62
     0
 63
     7
283
     0
274
    -2
284
     1
 64
     0
275
    -2
285
     1
 65
     0
276
    -2
286
     1
 66
     0
277
    -2
287
     1
 67
     0
278
    -2
288
     1
 68
     0
279
    -2
289
     1
 69
     0
  7
Standard
140
0.18
170
     5
 62
     0
 63
     7
283
     0
274
    -2
284
     1
 64
     0
275
    -2
285
     1
 65
     0
276
    -2
286
     1
 66
     0
277
    -2
287
     1
 67
     0
278
    -2
288
     1
 68
     0
279
    -2
289
     1
 69
     0
  0
VISUALSTYLE
  5
2F
102
{ACAD_XDICTIONARY
360
49A
102
}
102
{ACAD_REACTORS
330
2A
102
}
330
2A
100
AcDbVisualStyle
  2
2dWireframe
 70
     4
 71
     0
 72
     2
 73
     0
 90
        0
 40
-0.6
 41
-30.0
 62
     5
 63
     7
 74
     1
 91
        4
 64
     7
 65
   257
 75
     1
175
     1
 42
1.0
 92
        0
 66
   257
 43
1.0
 76
     1
 77
     6
 78
     2
 67
     7
 79
     5
170
     0
171
     0
290
     0
174
     0
 93
        1
 44
0.0
173
     0
291
     0
 45
0.0
1001
ACAD
1000
AcDbSavedByObjectVersion
1070
     0
  0
VISUALSTYLE
  5
A48
102
{ACAD_REACTORS
330
2A
102
}
330
2A
100
AcDbVisualStyle
  2
3D Hidden
 70
     6
 71
     1
 72
     2
 73
     2
 90
        0
 40
-0.6
 41
-30.0
 62
     5
 63
     7
 74
     2
 91
        2
 64
     7
 65
   257
 75
     2
175
     1
 42
40.0
 92
        0
 66
   257
 43
1.0
 76
     1
 77
     6
 78
     2
 67
     7
 79
     3
170
     0
171
     0
290
     0
174
     0
 93
        1
 44
0.0
173
     0
291
     0
 45
0.0
1001
ACAD
1000
AcDbSavedByObjectVersion
1070
     0
  0
VISUALSTYLE
  5
A47
102
{ACAD_REACTORS
330
2A
102
}
330
2A
100
AcDbVisualStyle
  2
3dWireframe
 70
     5
 71
     0
 72
     2
 73
     0
 90
        0
 40
-0.6
 41
-30.0
 62
     5
 63
     7
 74
     1
 91
        4
 64
     7
 65
   257
 75
     1
175
     1
 42
1.0
 92
        0
 66
   257
 43
1.0
 76
     1
 77
     6
 78
     2
 67
     7
 79
     5
170
     0
171
     0
290
     0
174
     0
 93
        1
 44
0.0
173
     0
291
     0
 45
0.0
1001
ACAD
1000
AcDbSavedByObjectVersion
1070
     0
  0
VISUALSTYLE
  5
32
102
{ACAD_XDICTIONARY
360
4A0
102
}
102
{ACAD_REACTORS
330
2A
102
}
330
2A
100
AcDbVisualStyle
  2
Basic
 70
     7
 71
     1
 72
     0
 73
     1
 90
        0
 40
-0.6
 41
-30.0
 62
     5
 63
     7
 74
     0
 91
        4
 64
     7
 65
   257
 75
     1
175
     1
 42
1.0
 92
        8
 66
     7
 43
1.0
 76
     1
 77
     6
 78
     2
 67
     7
 79
     5
170
     0
171
     0
290
     0
174
     0
 93
        1
 44
0.0
173
     0
291
     1
 45
0.0
1001
ACAD
1000
AcDbSavedByObjectVersion
1070
     0
  0
VISUALSTYLE
  5
36
102
{ACAD_XDICTIONARY
360
4A8
102
}
102
{ACAD_REACTORS
330
2A
102
}
330
2A
100
AcDbVisualStyle
  2
Brighten
 70
    12
 71
     2
 72
     2
 73
     0
 90
        0
 40
-0.6
 41
-30.0
 62
     5
 63
     7
 74
     1
 91
        4
 64
     7
 65
   257
 75
     1
175
     1
 42
1.0
 92
        8
 66
     7
 43
1.0
 76
     1
 77
     6
 78
     2
 67
     7
 79
     5
170
     0
171
     0
290
     0
174
     0
 93
        1
 44
50.0
173
     0
291
     1
 45
0.0
1001
ACAD
1000
AcDbSavedByObjectVersion
1070
     0
  0
VISUALSTYLE
  5
3A
102
{ACAD_XDICTIONARY
360
4B0
102
}
102
{ACAD_REACTORS
330
2A
102
}
330
2A
100
AcDbVisualStyle
  2
ColorChange
 70
    16
 71
     2
 72
     2
 73
     3
 90
        0
 40
-0.6
 41
-30.0
 62
     5
 63
     8
 74
     1
 91
        4
 64
     7
 65
   257
 75
     1
175
     1
 42
1.0
 92
        8
 66
     8
 43
1.0
 76
     1
 77
     6
 78
     2
 67
     7
 79
     5
170
     0
171
     0
290
     0
174
     0
 93
        1
 44
0.0
173
     0
291
     1
 45
0.0
1001
ACAD
1000
AcDbSavedByObjectVersion
1070
     0
  0
VISUALSTYLE
  5
A49
102
{ACAD_REACTORS
330
2A
102
}
330
2A
100
AcDbVisualStyle
  2
Conceptual
 70
     9
 71
     3
 72
     2
 73
     0
 90
        0
 40
-0.6
 41
-30.0
 62
     5
 63
     7
 74
     2
 91
        2
 64
     7
 65
   257
 75
     1
175
     1
 42
40.0
 92
        8
 66
     7
 43
1.0
 76
     1
 77
     6
 78
     2
 67
     7
 79
     3
170
     0
171
     0
290
     0
174
     0
 93
        1
 44
0.0
173
     0
291
     0
 45
0.0
1001
ACAD
1000
AcDbSavedByObjectVersion
1070
     0
  0
VISUALSTYLE
  5
35
102
{ACAD_XDICTIONARY
360
4A6
102
}
102
{ACAD_REACTORS
330
2A
102
}
330
2A
100
AcDbVisualStyle
  2
Dim
 70
    11
 71
     2
 72
     2
 73
     0
 90
        0
 40
-0.6
 41
-30.0
 62
     5
 63
     7
 74
     1
 91
        4
 64
     7
 65
   257
 75
     1
175
     1
 42
1.0
 92
        8
 66
     7
 43
1.0
 76
     1
 77
     6
 78
     2
 67
     7
 79
     5
170
     0
171
     0
290
     0
174
     0
 93
        1
 44
-50.0
173
     0
291
     1
 45
0.0
1001
ACAD
1000
AcDbSavedByObjectVersion
1070
     0
  0
VISUALSTYLE
  5
39
102
{ACAD_XDICTIONARY
360
4AE
102
}
102
{ACAD_REACTORS
330
2A
102
}
330
2A
100
AcDbVisualStyle
  2
Facepattern
 70
    15
 71
     2
 72
     2
 73
     0
 90
        0
 40
-0.6
 41
-30.0
 62
     5
 63
     7
 74
     1
 91
        4
 64
     7
 65
   257
 75
     1
175
     1
 42
1.0
 92
        8
 66
     7
 43
1.0
 76
     1
 77
     6
 78
     2
 67
     7
 79
     5
170
     0
171
     0
290
     0
174
     0
 93
        1
 44
0.0
173
     0
291
     1
 45
0.0
1001
ACAD
1000
AcDbSavedByObjectVersion
1070
     0
  0
VISUALSTYLE
  5
2B
102
{ACAD_XDICTIONARY
360
492
102
}
102
{ACAD_REACTORS
330
2A
102
}
330
2A
100
AcDbVisualStyle
  2
Flat
 70
     0
 71
     2
 72
     1
 73
     1
 90
        2
 40
-0.6
 41
30.0
 62
     5
 63
     7
 74
     0
 91
        4
 64
     7
 65
   257
 75
     1
175
     1
 42
1.0
 92
        8
 66
     7
 43
1.0
 76
     1
 77
     6
 78
     2
 67
     7
 79
     5
170
     0
171
     0
290
     0
174
     0
 93
       13
 44
0.0
173
     0
291
     1
 45
0.0
1001
ACAD
1000
AcDbSavedByObjectVersion
1070
     0
  0
VISUALSTYLE
  5
2C
102
{ACAD_XDICTIONARY
360
494
102
}
102
{ACAD_REACTORS
330
2A
102
}
330
2A
100
AcDbVisualStyle
  2
FlatWithEdges
 70
     1
 71
     2
 72
     1
 73
     1
 90
        2
 40
-0.6
 41
30.0
 62
     5
 63
     7
 74
     1
 91
        4
 64
     7
 65
   257
 75
     1
175
     1
 42
1.0
 92
        0
 66
   257
 43
1.0
 76
     1
 77
     6
 78
     2
 67
     7
 79
     5
170
     0
171
     0
290
     0
174
     0
 93
       13
 44
0.0
173
     0
291
     1
 45
0.0
1001
ACAD
1000
AcDbSavedByObjectVersion
1070
     0
  0
VISUALSTYLE
  5
2D
102
{ACAD_XDICTIONARY
360
496
102
}
102
{ACAD_REACTORS
330
2A
102
}
330
2A
100
AcDbVisualStyle
  2
Gouraud
 70
     2
 71
     2
 72
     2
 73
     1
 90
        2
 40
-0.6
 41
30.0
 62
     5
 63
     7
 74
     0
 91
        4
 64
     7
 65
   257
 75
     1
175
     1
 42
1.0
 92
        0
 66
     7
 43
1.0
 76
     1
 77
     6
 78
     2
 67
     7
 79
     5
170
     0
171
     0
290
     0
174
     0
 93
       13
 44
0.0
173
     0
291
     1
 45
0.0
1001
ACAD
1000
AcDbSavedByObjectVersion
1070
     0
  0
VISUALSTYLE
  5
2E
102
{ACAD_XDICTIONARY
360
498
102
}
102
{ACAD_REACTORS
330
2A
102
}
330
2A
100
AcDbVisualStyle
  2
GouraudWithEdges
 70
     3
 71
     2
 72
     2
 73
     1
 90
        2
 40
-0.6
 41
30.0
 62
     5
 63
     7
 74
     1
 91
        4
 64
     7
 65
   257
 75
     1
175
     1
 42
1.0
 92
        0
 66
   257
 43
1.0
 76
     1
 77
     6
 78
     2
 67
     7
 79
     5
170
     0
171
     0
290
     0
174
     0
 93
       13
 44
0.0
173
     0
291
     1
 45
0.0
1001
ACAD
1000
AcDbSavedByObjectVersion
1070
     0
  0
VISUALSTYLE
  5
38
102
{ACAD_XDICTIONARY
360
4AC
102
}
102
{ACAD_REACTORS
330
2A
102
}
330
2A
100
AcDbVisualStyle
  2
Linepattern
 70
    14
 71
     2
 72
     2
 73
     0
 90
        0
 40
-0.6
 41
-30.0
 62
     5
 63
     7
 74
     1
 91
        4
 64
     7
 65
   257
 75
     7
175
     7
 42
1.0
 92
        8
 66
     7
 43
1.0
 76
     1
 77
     6
 78
     2
 67
     7
 79
     5
170
     0
171
     0
290
     0
174
     0
 93
        1
 44
0.0
173
     0
291
     1
 45
0.0
1001
ACAD
1000
AcDbSavedByObjectVersion
1070
     0
  0
VISUALSTYLE
  5
A4A
102
{ACAD_REACTORS
330
2A
102
}
330
2A
100
AcDbVisualStyle
  2
Realistic
 70
     8
 71
     2
 72
     2
 73
     0
 90
        0
 40
-0.6
 41
-30.0
 62
     5
 63
     7
 74
     1
 91
        0
 64
     7
 65
   257
 75
     1
175
     1
 42
1.0
 92
        8
 66
     8
 43
1.0
 76
     1
 77
     6
 78
     2
 67
     7
 79
     5
170
     0
171
     0
290
     0
174
     0
 93
       13
 44
0.0
173
     0
291
     0
 45
0.0
1001
ACAD
1000
AcDbSavedByObjectVersion
1070
     0
  0
VISUALSTYLE
  5
37
102
{ACAD_XDICTIONARY
360
4AA
102
}
102
{ACAD_REACTORS
330
2A
102
}
330
2A
100
AcDbVisualStyle
  2
Thicken
 70
    13
 71
     2
 72
     2
 73
     0
 90
        0
 40
-0.6
 41
-30.0
 62
     5
 63
     7
 74
     1
 91
        4
 64
     7
 65
   257
 75
     1
175
     1
 42
1.0
 92
       12
 66
     7
 43
1.0
 76
     1
 77
     6
 78
     2
 67
     7
 79
     5
170
     0
171
     0
290
     0
174
     0
 93
        1
 44
0.0
173
     0
291
     1
 45
0.0
1001
ACAD
1000
AcDbSavedByObjectVersion
1070
     0
  0
DICTIONARYVAR
  5
3B81
102
{ACAD_REACTORS
330
487
102
}
330
487
100
DictionaryVariables
280
     0
  1
1:1
  0
DICTIONARYVAR
  5
3B7F
102
{ACAD_REACTORS
330
487
102
}
330
487
100
DictionaryVariables
280
     0
  1
STANDARD
  0
DICTIONARYVAR
  5
5FE
102
{ACAD_REACTORS
330
487
102
}
330
487
100
DictionaryVariables
280
     0
  1
STANDARD
  0
DICTIONARYVAR
  5
48A
102
{ACAD_REACTORS
330
487
102
}
330
487
100
DictionaryVariables
280
     0
  1
2
  0
DICTIONARYVAR
  5
48B
102
{ACAD_REACTORS
330
487
102
}
330
487
100
DictionaryVariables
280
     0
  1
1
  0
DICTIONARYVAR
  5
86B
102
{ACAD_REACTORS
330
487
102
}
330
487
100
DictionaryVariables
280
     0
  1
0
  0
DICTIONARYVAR
  5
3B82
102
{ACAD_REACTORS
330
487
102
}
330
487
100
DictionaryVariables
280
     0
  1
0
  0
DICTIONARYVAR
  5
3B80
102
{ACAD_REACTORS
330
487
102
}
330
487
100
DictionaryVariables
280
     0
  1
0
  0
DICTIONARYVAR
  5
86A
102
{ACAD_REACTORS
330
487
102
}
330
487
100
DictionaryVariables
280
     0
  1
127
  0
DICTIONARY
  5
7D4
330
1E
100
AcDbDictionary
280
     1
281
     1
  3
ADSK_XREC_LAYOUTTHUMBNAIL
360
7D5
  0
DICTIONARY
  5
3B90
330
3D
100
AcDbDictionary
280
     1
281
     1
  3
ACAD_XREC_ROUNDTRIP
360
3B91
  0
DICTIONARY
  5
3B8E
330
3C
100
AcDbDictionary
280
     1
281
     1
  3
ACAD_XREC_ROUNDTRIP
360
3B8F
  0
DICTIONARY
  5
3B92
330
3E
100
AcDbDictionary
280
     1
281
     1
  3
ACAD_XREC_ROUNDTRIP
360
3B93
  0
DICTIONARY
  5
3B7C
330
4BB
100
AcDbDictionary
280
     1
281
     1
  3
ACAD_ROUNDTRIP_2008_TABLESTYLE_CELLSTYLEMAP
360
3B8D
  3
ACAD_XREC_ROUNDTRIP
360
3B94
  0
DICTIONARY
  5
49A
330
2F
100
AcDbDictionary
280
     1
281
     1
  3
ACAD_XREC_ROUNDTRIP
360
49B
  0
DICTIONARY
  5
4A0
330
32
100
AcDbDictionary
280
     1
281
     1
  3
ACAD_XREC_ROUNDTRIP
360
4A1
  0
DICTIONARY
  5
4A8
330
36
100
AcDbDictionary
280
     1
281
     1
  3
ACAD_XREC_ROUNDTRIP
360
4A9
  0
DICTIONARY
  5
4B0
330
3A
100
AcDbDictionary
280
     1
281
     1
  3
ACAD_XREC_ROUNDTRIP
360
4B1
  0
DICTIONARY
  5
4A6
330
35
100
AcDbDictionary
280
     1
281
     1
  3
ACAD_XREC_ROUNDTRIP
360
4A7
  0
DICTIONARY
  5
4AE
330
39
100
AcDbDictionary
280
     1
281
     1
  3
ACAD_XREC_ROUNDTRIP
360
4AF
  0
DICTIONARY
  5
492
330
2B
100
AcDbDictionary
280
     1
281
     1
  3
ACAD_XREC_ROUNDTRIP
360
493
  0
DICTIONARY
  5
494
330
2C
100
AcDbDictionary
280
     1
281
     1
  3
ACAD_XREC_ROUNDTRIP
360
495
  0
DICTIONARY
  5
496
330
2D
100
AcDbDictionary
280
     1
281
     1
  3
ACAD_XREC_ROUNDTRIP
360
497
  0
DICTIONARY
  5
498
330
2E
100
AcDbDictionary
280
     1
281
     1
  3
ACAD_XREC_ROUNDTRIP
360
499
  0
DICTIONARY
  5
4AC
330
38
100
AcDbDictionary
280
     1
281
     1
  3
ACAD_XREC_ROUNDTRIP
360
4AD
  0
DICTIONARY
  5
4AA
330
37
100
AcDbDictionary
280
     1
281
     1
  3
ACAD_XREC_ROUNDTRIP
360
4AB
  0
XRECORD
  5
7D5
102
{ACAD_REACTORS
330
7D4
102
}
330
7D4
100
AcDbXrecord
280
     1
310
28000000B40000007F00000001000800000000004C59000000000000000000000001000000000000FFFFFF0000000000FFFFFF000000000000000000000000000000000000000000000000000000000000000000330000006600000099000000CC000000FF00000000330000333300006633000099330000CC330000FF3300
310
0000660000336600006666000099660000CC660000FF66000000990000339900006699000099990000CC990000FF99000000CC000033CC000066CC000099CC0000CCCC0000FFCC000000FF000033FF000066FF000099FF0000CCFF0000FFFF000000003300330033006600330099003300CC003300FF003300003333003333
310
33006633330099333300CC333300FF33330000663300336633006666330099663300CC663300FF66330000993300339933006699330099993300CC993300FF99330000CC330033CC330066CC330099CC3300CCCC3300FFCC330000FF330033FF330066FF330099FF3300CCFF3300FFFF330000006600330066006600660099
310
006600CC006600FF00660000336600333366006633660099336600CC336600FF33660000666600336666006666660099666600CC666600FF66660000996600339966006699660099996600CC996600FF99660000CC660033CC660066CC660099CC6600CCCC6600FFCC660000FF660033FF660066FF660099FF6600CCFF6600
310
FFFF660000009900330099006600990099009900CC009900FF00990000339900333399006633990099339900CC339900FF33990000669900336699006666990099669900CC669900FF66990000999900339999006699990099999900CC999900FF99990000CC990033CC990066CC990099CC9900CCCC9900FFCC990000FF99
310
0033FF990066FF990099FF9900CCFF9900FFFF99000000CC003300CC006600CC009900CC00CC00CC00FF00CC000033CC003333CC006633CC009933CC00CC33CC00FF33CC000066CC003366CC006666CC009966CC00CC66CC00FF66CC000099CC003399CC006699CC009999CC00CC99CC00FF99CC0000CCCC0033CCCC0066CC
310
CC0099CCCC00CCCCCC00FFCCCC0000FFCC0033FFCC0066FFCC0099FFCC00CCFFCC00FFFFCC000000FF003300FF006600FF009900FF00CC00FF00FF00FF000033FF003333FF006633FF009933FF00CC33FF00FF33FF000066FF003366FF006666FF009966FF00CC66FF00FF66FF000099FF003399FF006699FF009999FF00CC
310
99FF00FF99FF0000CCFF0033CCFF0066CCFF0099CCFF00CCCCFF00FFCCFF0000FFFF0033FFFF0066FFFF0099FFFF00CCFFFF00FFFFFF00000000000D0D0D001A1A1A00282828003535350043434300505050005D5D5D006B6B6B00787878008686860093939300A1A1A100AEAEAE00BBBBBB00C9C9C900D6D6D600E4E4E400
310
F1F1F100FFFFFF0000000000000000000000000000000000000000000000000000000000000000000000000000000000E2E2E2E2E2E2E2E2E2E2E2E2E2E2E2E2E2E2E2E2E2E2E2E2E2E2E2E2E2E2E2E2E2E2E2E2E2E2E2E2E2E2E2E2E2E2E2E2E2E2E2E2E2E2E2E2E2E2E2E2E2E2E2E2E2E2E2E2E2E2E2E2E2E2E2E2E2E2E2
310
E2E2E2E2E2E2E2E2E2E2E2E2E2E2E2E2E2E2E2E2E2E2E2E2E2E2E2E2E2E2E2E2E2E2E2E2E2E2E2E2E2E2E2E2E2E2E2E2E2E2E2E2E2E2E2E2E2E2E2E2E2E2E2E2E2E2E2E2E2E2E2E2E2E2E2E2E2E2E2E2E2E2E2E2E2E2E2E2E2E2E2E2E2E2E2E2E2E2E2E2E2E2F5F5F5F5F5F5F5F5F5F5F5F5F5F5F5F5F5F5F5F5F5F5F5F5F5
310
F5F5F5F5F5F5F5F5F5F5F5F5F5F5F5F5F5F5F5F5F5F5F5F5F5F5F5F5F5F5F5F5F5F5F5F5F5F5F5F5F5F5F5F5F5F5F5F5F5F5F5F5F5F5F5F5F5F5F5F5F5F5F5F5F5F5F5F5F5F5F5F5F5F5F5F5F5F5F5F5F5F5F5F5F5F5F5F5F5F5F5F5F5F5F5F5F5F5F5F5F5F5F5F5F5F5F5F5F5F5F5F5F5F5F5F5F5F5F5F5F5F5F5F5F5F5F5
310
F5F5F5F5F5F5F5F5F5F5F5F5F5F5F5F5F5F5F5F5F5F5F5F5F5E2E2E2F5E2E2E2E2E2E2E2E2E2E2E2E2E2E2E2E2E2E2E2E2E2E2E2E2E2E2E2E2E2E2E2E2E2E2E2E2E2E2E2E2E2E2E2E2E2E2E2E2E2E2E2E2E2E2E2E2E2E2E2E2E2E2E2E2E2E2E2E2E2E2E2E2E2E2E2E2E2E2E2E2E2E2E2E2E2E2E2E2E2E2E2E2E2E2E2E2E2E2
310
E2E2E2E2E2E2E2E2E2E2E2E2E2E2E2E2E2E2E2E2E2E2E2E2E2E2E2E2E2E2E2E2E2E2E2E2E2E2E2E2E2E2E2E2E2E2E2E2E2E2E2E2E2E2E2E2E2E2E2E2E2E2E2E2E2E2E2E2E2E2E2E2E2E2E2E2E2F5E2E2E2F5E2F5F5F5F5F5F5F5F5F5F5F5F5F5F5F5F5F5F5F5F5F5F5F5F5F5F5F5F5F5F5F5F5F5F5F5F5F5F5F5F5F5F5F5F5
310
F5F5F5F5F5F5F5F5F5F5F5F5F5F5F5F5F5F5F5F5F5F5F5F5F5F5F5F5F5F5F5F5F5F5F5F5F5F5F5F5F5F5F5F5F5F5F5F5F5F5F5F5F5F5F5F5F5F5F5F5F5F5F5F5F5F5F5F5F5F5F5F5F5F5F5F5F5F5F5F5F5F5F5F5F5F5F5F5F5F5F5F5F5F5F5F5F5F5F5F5F5F5F5F5F5F5F5F5F5F5F5F5F5F5F5F5F5F5F5F5F5F5F5F5F5F5F5
310
F5F5E2F5E2E2E2F5E2F5F5F5F5F5F5F5F5F5F5F5F5F5F5F5F5F5F5F5F5F5F5F5F5F5F5F5F5F5F5F5F5F5F5F5F5F5F5F5F5F5F5F5F5F5F5F5F5F5F5F5F5F5F5F5F5F5F5F5F5F5F5F5F5F5F5F5F5F5F5F5F5F5F5F5F5F5F5F5F5F5F5F5F5F5F5F5F5F5F5F5F5F5F5F5F5F5F5F5F5F5F5F5F5F5F5F5F5F5F5F5F5F5F5F5F5F5F5
310
F5F5F5F5F5F5F5F5F5F5F5F5F5F5F5F5F5F5F5F5F5F5F5F5F5F5F5F5F5F5F5F5F5F5F5F5F5F5F5F5F5F5F5F5F5F5F5F5F5F5F5F5F5F5F5E2F5E2E2E2F5E2F5F5F5F5F5F5F5F5F5F5F5F5F5F5F5F5F5F5F5F5F5F5F5F5F5F5F5F5F5F5F5F5F5F5F5F5F5F5F5F5F5F5F5F5F5F5F5F5F5F5F5F5F5F5F5F5F5F5F5F5F5F5F5F5F5
310
F5F5F5F5F5F5F5F5F5F5F5F5F5F5F5F5F5F5F5F5F5F5F5F5F5F5F5F5F5F5F5F5F5F5F5F5F5F5F5F5F5F5F5F5F5F5F5F5F5F5F5F5F5F5F5F5F5F5F5F5F5F5F5F5F5F5F5F5F5F5F5F5F5F5F5F5F5F5F5F5F5F5F5F5F5F5F5F5F5F5F5F5F5F5F5F5F5F5F5F5F5F5F5F5F5F5F5F5E2F5E2E2E2F5E2F5F5F5F5F5F5F5F5F5F5F5F5
310
F5F5F5F5F5F5F5F5F5F5F5F5F5F5F5F5F5F5F5F5F5F5F5F5F5F5F5F5F5F5F5F5F5F5F5F5F5F5F5F5F5F5F5F5F5F5F5F5F5F5F5F5F5F5F5F5F5F5F5F5F5F5F5F5F5F5F5F5F5F5F5F5F5F5F5F5F5F5F5F5F5F5F5F5F5F5F5F5F5F5F5F5F5F5F5F5F5F5F5F5F5F5F5F5F5F5F5F5F5F5F5F5F5F5F5F5F5F5F5F5F5F5F5F5F5F5F5
310
F5F5F5F5F5F5F5F5F5F5F5F5F5F5F5F5F5F5F5F5F5F5F5F5F5F5F5F5F5F5F5F5F5F5E2F5E2E2E2F5E2F5F5F5F5F5F5F5F5F5F5F5F5F5F5F5F5F5F5F5F5F5F5F5F5F5F5F5F5F5F5F5F5F5F5F5F5F5F5F5F5F5F5F5F5F5F5F5F5F5F5F5F5F5F5F5F5F5F5F5F5F5F5F5F5F5F5F5F5F5F5F5F5F5F5F5F5F5F5F5F5F5F5F5F5F5F5
310
F5F5F5F5F5F5F5F5F5F5F5F5F5F5F5F5F5F5F5F5F5F5F5F5F5F5F5F5F5F5F5F5F5F5F5F5F5F5F5F5F5F5F5F5F5F5F5F5F5F5F5F5F5F5F5F5F5F5F5F5F5F5F5F5F5F5F5F5F5F5F5F5F5F5F5F5F5F5F5F5F5F5F5F5F5F5F5E2F5E2E2E2F5E2F5F5F5F5F5F5F5F5F5F5F5F5F5F5F5F5F5F5F5F5F5F5F5F5F5F5F5F5F5F5F5F5F5
310
F5F5F5F5F5F5F5F5F5F5F5F5F5F5F5F5F5F5F5F5F5F5F5F5F5F5F5F5F5F5F5F5F5F5F5F5F5F5F5F5F5F5F5F5F5F5F5F5F5F5F5F5F5F5F5F5F5F5F5F5F5F5F5F5F5F5F5F5F5F5F5F5F5F5F5F5F5F5F5F5F5F5F5F5F5F5F5F5F5F5F5F5F5F5F5F5F5F5F5F5F5F5F5F5F5F5F5F5F5F5F5F5F5F5F5F5F5F5F5F5F5F5F5F5F5F5F5
310
F5F5F5F5F5F5F5F5F5F5F5F5F5E2F5E2E2E2F5E2F5F5F5F5F5F5F5F5F5F5F5F5F5F5F5F5F5F5F5F5F5F5F5F5F5F5F5F5F5F5F5F5F5F5F5F5F5F5F5F5F5F5F5F5F5F5F5F5F5F5F5F5F5F5F5F5F5F5F5F5F5F5F5F5F5F5F5F5F5F5F5F5F5F5F5F5F5F5F5F5F5F5F5F5F5F5F5F5F5F5F5F5F5F5F5F5F5F5F5F5F5F5F5F5F5F5F5
310
F5F5F5F5F5F5F5F5F5F5F5F5F5F5F5F5F5F5F5F5F5F5F5F5F5F5F5F5F5F5F5F5F5F5F5F5F5F5F5F5F5F5F5F5F5F5F5F5F5F5F5F5F5F5F5F5F5F5F5F5F5F5F5F5F5F5E2F5E2E2E2F5E2F5F5F5F5F5F5F5F5F5F5F5F5F5F5F5F5F5F5F5F5F5F5F5F5F5F5F5F5F5F5F5F5F5F5F5F5F5F5F5F5F5F5F5F5F5F5F5F5F5F5F5F5F5F5
310
F5F5F5F5F5F5F5F5F5F5F5F5F5F5F5F5F5F5F5F5F5F5F5F5F5F5F5F5F5F5F5F5F5F5F5F5F5F5F5F5F5F5F5F5F5F5F5F5F5F5F5F5F5F5F5F5F5F5F5F5F5F5F5F5F5F5F5F5F5F5F5F5F5F5F5F5F5F5F5F5F5F5F5F5F5F5F5F5F5F5F5F5F5F5F5F5F5F5F5F5F5F5F5F5F5F5F5F5F5F5F5F5F5F5F5F5F5F5F5E2F5E2E2E2F5E2F5
310
F5F5F5F5F5F5F5F5F5F5F5F5F5F5F5F5F5F5F5F5F5F5F5F5F5F5F5F5F5F5F5F5F5F5F5F5F5F5F5F5F5F5F5F5F5F5F5E2E2E2E2E2E2E2E2E2E2E2E2E2E2E2E2E2E2E2E2E2E2E2E2E2E2E2E2E2E2E2E2E2E2E2E2E2E2E2E2E2E2E2E2E2F5F5F5F5F5F5F5F5F5F5F5F5F5F5F5F5F5F5F5F5F5F5F5F5F5F5F5F5F5F5F5F5F5F5F5
310
F5F5F5F5F5F5F5F5F5F5F5F5F5F5F5F5F5F5F5F5F5F5F5F5F5F5F5F5F5F5F5F5F5F5F5F5F5F5F5F5F5F5F5F5F5E2F5E2E2E2F5E2F5F5F5F5F5F5F5F5F5F5F5F5F5F5F5F5F5F5F5F5F5F5F5F5F5F5F5F5F5F5F5F5F5F5F5F5F5F5F5F5F5F5F5F5F5F5F5F5E2E2E2E2E2E2E2E2E2E2E2E2E2E2E2E2E2E2E2E2E2E2E2E2E2E2E2
310
E2E2E2E2E2E2E2E2E2E2E2E2E2E2E2E2E2E2F5F5F5F5F5F5F5F5F5F5F5F5F5F5F5F5F5F5F5F5F5F5F5F5F5F5F5F5F5F5F5F5F5F5F5F5F5F5F5F5F5F5F5F5F5F5F5F5F5F5F5F5F5F5F5F5F5F5F5F5F5F5F5F5F5F5F5F5F5F5F5F5F5F5F5F5F5F5F5F5E2F5E2E2E2F5E2F5F5F5F5F5F5F5F5F5F5F5F5F5F5F5F5F5F5F5F5F5F5
310
F5F5F5F5F5F5F5F5F5F5F5F5F5F5F5F5F5F5F5F5F5F5F5F5F5F5E2E2E2E2E2E2E2E2E2E2E2E2E2E2E2E2E2E2E2E2E2E2E2E2E2E2E2E2E2E2E2E2E2E2E2E2E2E2E2E2E2E2E2E2E2F5F5F5F5F5F5F5F5F5F5F5F5F5F5F5F5F5F5F5F5F5F5F5F5F5F5F5F5F5F5F5F5F5F5F5F5F5F5F5F5F5F5F5F5F5F5F5F5F5F5F5F5F5F5F5F5
310
F5F5F5F5F5F5F5F5F5F5F5F5F5F5F5F5F5F5F5F5F5F5F5F5E2F5E2E2E2F5E2F5F5F5F5F5F5F5F5F5F5F5F5F5F5F5F5F5F5F5F5F5F5F5F5F5F5F5F5F5F5F5F5F5F5F5F5F5F5F5F5F5F5F5F5F5F5F5F5E2E2E2E2E2E2E2E2E2E2E2E2E2E2E2E2E2E2E2E2E2E2E2E2E2E2E2E2E2E2E2E2E2E2E2E2E2E2E2E2E2E2E2E2E2F5F5F5
310
F5F5F5F5F5F5F5F5F5F5F5F5F5F5F5F5F5F5F5F5F5F5F5F5F5F5F5F5F5F5F5F5F5F5F5F5F5F5F5F5F5F5F5F5F5F5F5F5F5F5F5F5F5F5F5F5F5F5F5F5F5F5F5F5F5F5F5F5F5F5F5F5F5F5F5F5F5E2F5E2E2E2F5E2F5F5F5F5F5F5F5F5F5F5F5F5F5F5F5F5F5F5F5F5F5F5F5F5F5F5F5F5F5F5F5F5F5F5F5F5F5F5F5F5F5E2BE
310
F5F5F5F5F5F5F5F5F5F5F5F5F5F5F5F5F5F5F5F5F5F5F5F5F5F5F5F5F5F5F5F5F5F5F5F5F5F5F5F5F5F5F5F5F5F5F5F5F5F5F5F5F5F5F5F5F5F5F5F5F5F5F5F5F5F5F5F5F5F5F5F5F5F5F5F5F5F5F5F5F5F5F5F5F5F5F5F5F5F5F5F5F5F5F5F5F5F5F5F5F5F5F5F5F5F5F5F5F5F5F5F5F5F5F5F5F5F5F5F5F5F5F5F5F5F5F5
310
F5F5F5E2F5E2E2E2F5E2F5F5F5F5F5F5F5F5F5F5F5F5F5F5F5F5F5F5F5F5F5F5F5F5F5F5F5F5F5F5F5F5F5F5F5F5F5F5F5F5E2E2E2E2F5F5F5F5F5E2E2F5E2E2E2E2E2E2E2E2F5E2E2E2E2E2E2E2E2F5E2E2E2E2E2E2E2E2F5E2E2E2E2E2E2E2E2F5E2E2E2E2E2E2E2E2F5E2E2E2E2E2E2E2E2F5E2E2E2E2F5E2E2E2E2E2E2
310
E2E2F5E2E2E2E2E2E2E2E2F5E2E2F5F5F5F5F5F5F5F5F5F5F5F5F5F5F5F5F5F5F5F5F5F5F5F5F5F5F5F5F5F5F5F5F5F5F5F5F5F5F5F5F5F5E2F5E2E2E2F5E2F5F5F5F5F5F5F5F5F5F5F5F5F5F5F5F5F5F5F5F5F5F5F5F5F5F5F5F5F5F5F5F5F5F5F5F5F5F5F5F5BEE2F5F5F5F5F5F5F5E2F5F5F5F5F5F5F5F5F5F5F5F5F5F5
310
F5F5F5F5F5F5F5F5F5F5F5F5F5F5F5F5F5F5F5F5F5F5F5F5F5F5F5F5F5F5F5F5F5F5F5F5F5F5F5F5F5F5F5F5F5F5F5F5F5F5F5F5F5F5F5F5F5F5F5F5F5F5F5F5F5F5E2F5F5F5F5F5F5F5F5F5F5F5F5F5F5F5F5F5F5F5F5F5F5F5F5F5F5F5F5F5F5F5F5F5F5F5F5F5F5F5F5F5F5E2F5E2E2E2F5E2F5F5F5F5F5F5F5F5F5F5F5
310
F5F5F5F5F5F5F5F5F5F5F5F5F5F5F5F5F5F5F5F5F5F5F5F5F5F5F5F5F5F5E2F5F5F5F5F5F5F5E2F5F5F5F5F5F5F5F5F5F5F5F5F5F5F5F5F5F5F5F5F5F5F5F5F5F5F5F5F5F5F5F5F5F5F5F5F5F5F5F5F5F5F5F5F5F5F5F5F5F5F5F5F5F5F5F5F5F5F5F5F5F5F5F5F5F5F5F5F5F5F5F5F5F5F5F5F5F5F5F5E2F5F5F5F5F5F5F5
310
F5F5F5F5F5F5F5F5F5F5F5F5F5F5F5F5F5F5F5F5F5F5F5F5F5F5F5F5F5F5F5F5F5F5F5E2F5E2E2E2F5E2F5F5F5F5F5F5F5F5F5F5F5F5F5F5F5F5F5F5F5F5F5F5F5F5F5F5F5F5F5F5F5F5F5F5F5F5F5F5F5F5F5E2F5F5F5F5F5F5F5F5F5F5F5F5F5F5F5F5F5F5F5F5F5F5F5F5F5F5F5F5F5F5F5F5F5F5F5F5F5F5F5F5F5F5F5
310
F5F5F5F5F5F5F5F5F5F5F5F5F5F5F5F5F5F5F5F5F5F5F5F5F5F5F5F5F5F5F5F5F5F5F5F5F5F5F5F5F5F5F5F5F5F5F5F5F5F5F5F5F5F5F5F5F5F5F5F5F5F5F5F5F5F5F5F5F5F5F5F5F5F5F5F5F5F5F5F5F5F5F5F5F5F5F5F5E2F5E2E2E2F5E2F5F5F5F5F5F5F5F5F5F5F5F5F5F5F5F5F5F5F5F5F5F5F5F5F5F5F5F5F5F5F5F5
310
F5F5F5F5F5F5F5F5F5E2F5F5F5F5F5F5F5E2F5F5F5F5F5F5F5F5F5F5F5F5F5F5F5F5F5F5F5F5F5F5F5F5F5F5F5F5F5F5F5F5F5F5F5F5F5F5F5F5F5F5F5F5F5F5F5F5F5F5F5F5F5F5F5F5F5F5F5F5F5F5F5F5F5F5F5F5F5F5F5F5F5F5F5F5F5F5F5F5E2F5F5F5F5F5F5F5F5F5F5F5F5F5F5F5F5F5F5F5F5F5F5F5F5F5F5F5F5
310
F5F5F5F5F5F5F5F5F5F5F5F5F5F5E2F5E2E2E2F5E2F5F5F5F5F5F5F5F5F5F5F5F5F5F5F5F5F5F5F5F5F5F5F5F5F5F5F5F5F5F5F5F5F5F5F5F5F5F5F5F5F5E2F5F5F5F5F5F5F5E2F5F5F5F5F5F5F5F5F5F5F5F5F5F5F5F5F5F5F5F5F5F5F5F5F5F5F5F5F5F5F5F5F5F5F5F5F5F5F5F5F5F5F5F5F5F5F5F5F5F5F5F5F5F5F5F5
310
F5F5F5F5F5F5F5F5F5F5F5F5F5F5F5F5F5F5F5F5F5F5F5F5E2F5F5F5F5F5F5F5F5F5F5F5F5F5F5F5F5F5F5F5F5F5F5F5F5F5F5F5F5F5F5F5F5F5F5F5F5F5F5F5F5F5F5E2F5E2E2E2F5E2F5F5F5F5F5F5F5F5F5F5F5F5F5F5F5F5F5F5F5F5F5F5F5F5F5F5F5F5F5F5F5F5F5F5F5F5F5F5F5F5F5E2F5F5F5F5F5F5F5E2F5F5F5
310
F5F5F5F5F5F5F5F5F5F5F5F5F5F5F5F5F5F5F5F5F5F5F5F5F5F5F5F5F5F5F5F5F5F5F5F5F5F5F5F5F5F5F5F5F5F5F5F5F5F5F5F5F5F5F5F5F5F5F5F5F5F5F5F5F5F5F5F5F5F5F5F5F5F5F5F5F5E2F5F5F5F5F5F5F5F5F5F5F5F5F5F5F5F5F5F5F5F5F5F5F5F5F5F5F5F5F5F5F5F5F5F5F5F5F5F5F5F5F5F5E2F5E2E2E2F5E2
310
F5F5F5F5F5F5F5F5F5F5F5F5F5F5F5F5F5F5F5F5F5F5F5F5F5F5F5F5F5F5F5F5F5F5F5F5F5F5F5F5F5E2F5F5F5F5F5F5F5E2F5F5F5F5F5F5F5F5F5F5F5F5F5F5F5F5F5F5F5F5F5F5F5F5F5F5F5F5F5F5F5F5F5F5F5F5F5F5F5F5F5F5F5F5F5F5F5F5F5F5F5F5F5F5F5F5F5F5F5F5F5F5F5F5F5F5F5F5F5F5F5F5F5F5F5F5F5
310
F5F5F5E2F5F5F5F5F5F5F5F5F5F5F5F5F5F5F5F5F5F5F5F5F5F5F5F5F5F5F5F5F5F5F5F5F5F5F5F5F5F5F5F5F5F5E2F5E2E2E2F5E2F5F5F5F5F5F5F5F5F5F5F5F5F5F5F5F5F5F5F5F5F5F5F5F5F5F5F5F5F5F5F5F5F5F5F5F5F5F5F5F5F5E2F5F5F5F5F5F5F5E2F5F5F5F5F5F5F5F5F5F5F5F5F5F5F5F5F5F5F5F5F5F5F5F5
310
F5F5F5F5F5F5F5F5F5F5F5F5F5F5F5F5F5F5F5F5F5F5F5F5F5F5F5F5F5F5F5F5F5F5F5F5F5F5F5F5F5F5F5F5F5F5F5F5F5F5F5F5F5F5F5F5E2F5F5F5F5F5F5F5F5F5F5F5F5F5F5F5F5F5F5F5F5F5F5F5F5F5F5F5F5F5F5F5F5F5F5F5F5F5F5F5F5F5F5E2F5E2E2E2F5E2F5F5F5F5F5F5F5F5F5F5F5F5F5F5F5F5F5F5F5F5F5
310
F5F5F5F5F5F5F5F5F5F5F5F5F5F5F5F5F5F5F5F5E2F5F5F5F5F5F5F5E2F5F5F5F5F5F5F5F5F5F5F5F5F5F5F5F5F5F5F5F5F5F5F5F5F5F5F5F5F5F5F5F5F5F5F5F5F5F5F5F5F5F5F5F5F5F5F5F5F5F5F5F5F5F5F5F5F5F5F5F5F5F5F5F5F5F5F5F5F5F5F5F5F5F5F5F5F5F5F5F5E2F5F5F5F5F5F5F5F5F5F5F5F5F5F5F5F5F5
310
F5F5F5F5F5F5F5F5F5F5F5F5F5F5F5F5F5F5F5F5F5F5F5F5F5E2F5E2E2E2F5E2F5F5F5F5F5F5F5F5F5F5F5F5F5F5F5F5F5F5F5F5F5F5F5F5F5F5F5F5F5F5F5F5F5F5F5F5F5F5F5F5F5E2F5F5F5F5F5F5F5E2F5F5F5F5F5F5F5F5F5F5F5F5F5F5F5F5F5F5F5F5F5F5F5F5F5F5F5F5F5F5F5F5F5F5F5F5F5F5F5F5F5F5F5F5F5
310
F5F5F5F5F5F5F5F5F5F5F5F5F5F5F5F5F5F5F5F5F5F5F5F5F5F5F5F5F5F5F5F5F5F5F5E2F5F5F5F5F5F5F5F5F5F5F5F5F5F5F5F5F5F5F5F5F5F5F5F5F5F5F5F5F5F5F5F5F5F5F5F5F5F5F5F5F5F5E2F5E2E2E2F5E2F5F5F5F5F5F5F5F5F5F5F5F5F5F5F5F5F5F5F5F5F5F5F5F5F5F5F5F5F5F5F5F5F5F5F5F5F5F5F5F5F5E2
310
F5F5F5F5F5F5F5E2F5F5F5F5F5F5F5F5F5F5F5F5F5F5F5F5F5F5F5F5F5F5F5F5F5F5F5F5F5F5F5F5F5F5F5F5F5F5F5F5F5F5F5F5F5F5F5F5F5F5F5F5F5F5F5F5F5F5F5F5F5F5F5F5F5F5F5F5F5F5F5F5F5F5F5F5F5F5F5F5E2F5F5F5F5F5F5F5F5F5F5F5F5F5F5F5F5F5F5F5F5F5F5F5F5F5F5F5F5F5F5F5F5F5F5F5F5F5F5
310
F5F5F5F5E2F5E2E2E2F5E2F5F5F5F5F5F5F5F5F5F5F5F5F5F5F5F5F5F5F5F5F5F5F5F5F5F5F5F5F5F5F5F5F5F5F5F5F5F5F5F5F5E2F5F5F5F5F5F5F5F5F5F5F5F5F5F5F5F5F5F5F5F5F5F5F5F5F5F5F5F5F5F5F5F5F5F5F5F5F5F5F5F5F5F5F5F5F5F5F5F5F5F5F5F5F5F5F5F5F5F5F5F5F5F5F5F5F5F5F5F5F5F5F5F5F5F5
310
F5F5F5F5F5F5F5F5F5F5F5F5F5F5F5F5F5F5F5F5F5F5F5F5F5F5F5F5F5F5F5F5F5F5F5F5F5F5F5F5F5F5F5F5F5F5F5F5F5F5F5F5F5F5F5F5F5E2F5E2E2E2F5E2F5F5F5F5F5F5F5F5F5F5F5F5F5F5F5F5F5F5F5F5F5F5F5F5F5F5F5F5F5F5F5F5F5F5F5F5F5F5F5F5F5E2F5F5F5F5F5F5F5E2F5F5F5F5F5F5F5F5F5F5F5F5F5
310
F5F5F5F5F5F5F5F5F5F5F5F5F5F5F5F5F5F5F5F5F5F5F5F5F5F5F5F5F5F5F5F5F5F5F5F5F5F5F5F5F5F5F5F5F5F5F5F5F5F5F5F5F5F5F5F5F5F5F5F5F5F5F5F5F5F5F5E2F5F5F5F5F5F5F5F5F5F5F5F5F5F5F5F5F5F5F5F5F5F5F5F5F5F5F5F5F5F5F5F5F5F5F5F5F5F5F5F5F5F5E2F5E2E2E2F5E2F5F5F5F5F5F5F5F5F5F5
310
F5F5F5F5F5F5F5F5F5F5F5F5F5F5F5F5F5F5F5F5F5F5F5F5F5F5F5F5F5F5F5E2F5F5F5F5F5F5F5E2F5F5F5F5F5F5F5F5F5F5F5F5F5F5F5F5F5F5F5F5F5F5F5F5F5F5F5F5F5F5F5F5F5F5F5F5F5F5F5F5F5F5F5F5F5F5F5F5F5F5F5F5F5F5F5F5F5F5F5F5F5F5F5F5F5F5F5F5F5F5F5F5F5F5F5F5F5F5F5F5E2F5F5F5F5F5F5
310
F5F5F5F5F5F5F5F5F5F5F5F5F5F5F5F5F5F5F5F5F5F5F5F5F5F5F5F5F5F5F5F5F5F5F5F5E2F5E2E2E2F5E2F5F5F5F5F5F5F5F5F5F5F5F5F5F5F5F5F5F5F5F5F5F5F5F5F5F5F5F5F5F5F5F5F5F5F5F5F5F5F5F5F5E2F5F5F5F5F5F5F5E2F5F5F5F5F5F5F5F5F5F5F5F5F5F5F5F5F5F5F5F5F5F5F5F5F5F5F5F5F5F5F5F5F5F5
310
F5F5F5F5F5F5F5F5F5F5F5F5F5F5F5F5F5F5F5F5F5F5F5F5F5F5F5F5F5F5F5F5F5F5F5F5F5F5F5F5F5F5F5F5F5F5E2F5F5F5F5F5F5F5F5F5F5F5F5F5F5F5F5F5F5F5F5F5F5F5F5F5F5F5F5F5F5F5F5F5F5F5F5F5F5F5F5F5F5E2F5E2E2E2F5E2F5F5F5F5F5F5F5F5F5F5F5F5F5F5F5F5F5F5F5F5F5F5F5F5F5F5F5F5F5F5F5
310
F5F5F5F5F5F5F5F5F5F5E2F5F5F5F5F5F5F5E2F5F5F5F5F5F5F5F5F5F5F5F5F5F5F5F5F5F5F5F5F5F5F5F5F5F5F5F5F5F5F5F5F5F5F5F5F5F5F5F5F5F5F5F5F5F5F5F5F5F5F5F5F5F5F5F5F5F5F5F5F5F5F5F5F5F5F5F5F5F5F5F5F5F5F5F5F5F5F5F5E2F5F5F5F5F5F5F5F5F5F5F5F5F5F5F5F5F5F5F5F5F5F5F5F5F5F5F5
310
F5F5F5F5F5F5F5F5F5F5F5F5F5F5F5E2F5E2E2E2F5E2F5F5F5F5F5F5F5F5F5F5F5F5F5F5F5F5F5F5F5F5F5F5F5F5F5F5F5F5F5F5F5F5F5F5F5F5F5F5F5F5F5E2F5F5F5F5F5F5F5E2F5F5F5F5F5F5F5F5F5F5F5F5F5F5F5F5F5F5F5F5F5F5F5F5F5F5F5F5F5F5F5F5F5F5F5F5F5F5F5F5F5F5F5E2E2E2E2E2E2E2E2F5F5F5F5
310
F5F5F5F5F5F5F5F5F5F5F5F5F5F5F5F5F5F5F5F5F5F5F5F5F5E2F5F5F5F5F5F5F5F5F5F5F5F5F5F5F5F5F5F5F5F5F5F5F5F5F5F5F5F5F5F5F5F5F5F5F5F5F5F5F5F5F5F5E2F5E2E2E2F5E2F5F5F5F5F5F5F5F5F5F5F5F5F5F5F5F5F5F5F5F5F5F5F5F5F5F5F5F5F5F5F5F5F5F5F5F5F5F5F5F5F5E2F5F5F5F5F5F5F5E2F5F5
310
F5F5F5F5F5F5F5F5F5F5F5F5F5F5F5F5F5F5F5F5F5F5F5F5F5F5F5F5F5F5F5F5F5F5F5F5F5F5F5F5F5E2F5F5F5E2E2E2E2E2E2E2F5F5F5F5F5F5F5F5F5F5F5F5F5F5F5F5F5F5F5F5F5F5F5F5F5F5E2F5F5F5F5F5F5F5F5F5F5F5F5F5F5F5F5F5F5F5F5F5F5F5F5F5F5F5F5F5F5F5F5F5F5F5F5F5F5F5F5F5F5E2F5E2E2E2F5
310
E2F5F5F5F5F5F5F5F5F5F5F5F5F5F5F5F5F5F5F5F5F5F5F5F5F5F5F5F5F5F5F5F5F5F5F5F5F5F5F5F5F5E2F5F5F5F5F5F5F5E2F5F5F5F5F5F5F5F5F5F5F5F5F5F5F5F5F5F5F5F5F5F5F5F5F5F5F5F5F5F5F5F5F5F5F5F5F5F5F5F5F5F5F5E2E2E2E2E2E2E2E2E2E2E2F5F5F5F5F5F5F5F5F5F5F5F5F5F5F5F5F5F5F5F5F5F5
310
F5F5F5F5E2F5F5F5F5F5F5F5F5F5F5F5F5F5F5F5F5F5F5F5F5F5F5F5F5F5F5F5F5F5F5F5F5F5F5F5F5F5F5F5F5F5F5E2F5E2E2E2F5E2F5F5F5F5F5F5F5F5F5F5F5F5F5F5F5F5F5F5F5F5F5F5F5F5F5F5F5F5F5F5F5F5F5F5F5F5F5F5F5F5F5E2F5F5F5F5F5F5F5E2F5F5F5F5F5F5F5F5F5F5F5F5F5F5F5F5F5F5F5F5F5F5F5
310
F5F5F5F5F5F5F5F5F5F5F5F5F5F5F5F5F5F5F5F5F5E2E2E2E2E2E2E2E2E2F5F5F5F5F5F5F5F5F5F5F5F5F5F5F5F5F5F5F5F5F5F5F5F5F5F5F5E2F5F5F5F5F5F5F5F5F5F5F5F5F5F5F5F5F5F5F5F5F5F5F5F5F5F5F5F5F5F5F5F5F5F5F5F5F5F5F5F5F5F5E2F5E2E2E2F5E2F5F5F5F5F5F5F5F5F5F5F5F5F5F5F5F5F5F5F5F5
310
F5F5F5F5F5F5F5F5F5F5F5F5F5F5F5F5F5F5F5F5F5E2F5F5F5F5F5F5F5F5F5F5F5F5F5F5F5F5F5F5F5F5F5F5F5F5F5F5F5F5F5F5F5F5F5F5F5F5F5F5F5F5F5F5F5F5F5F5F5F5F5F5F5F5E2E2E2E2E2E2E2E2E2F5F5F5F5F5F5F5F5F5F5F5F5F5F5F5F5F5F5F5F5F5F5F5F5F5F5F5F5F5F5F5F5F5F5F5F5F5F5F5F5F5F5F5F5
310
F5F5F5F5F5F5F5F5F5F5F5F5F5F5F5F5F5F5F5F5F5F5F5F5F5F5E2F5E2E2E2F5E2F5F5F5F5F5F5F5F5F5F5F5F5F5F5F5F5F5F5F5F5F5F5F5F5F5F5F5F5F5F5F5F5F5F5F5F5F5F5F5F5F5E2F5F5F5F5F5F5F5E2F5F5F5F5F5F5F5F5F5F5F5F5F5F5F5F5F5F5F5F5F5F5F5F5F5F5F5F5F5F5F5F5F5F5F5F5F5F5F5F5F5F5F5F5
310
E2E2E2E2E2E2E2E2E2F5F5F5F5F5F5F5F5F5F5F5F5F5F5F5F5F5F5F5F5F5F5F5F5F5F5F5E2F5F5F5F5F5F5F5F5F5F5F5F5F5F5F5F5F5F5F5F5F5F5F5F5F5F5F5F5F5F5F5F5F5F5F5F5F5F5F5F5F5F5E2F5E2E2E2F5E2F5F5F5F5F5F5F5F5F5F5F5F5F5F5F5F5F5F5F5F5F5F5F5F5F5F5F5F5F5F5F5F5F5F5F5F5F5F5F5F5F5
310
E2F5F5F5F5F5F5F5E2F5F5F5F5F5F5F5F5F5F5F5F5F5F5F5F5F5F5F5F5F5F5F5F5F5F5F5F5F5F5F5F5F5F5F5F5F5F5F5F5F5F5F5F5E2E2E2E2E2E2E2E2E2F5F5F5F5F5F5F5F5F5F5F5F5F5F5F5F5F5F5F5F5F5F5F5F5F5F5F5E2F5F5F5F5F5F5F5F5F5F5F5F5F5F5F5F5F5F5F5F5F5F5F5F5F5F5F5F5F5F5F5F5F5F5F5F5F5
310
F5F5F5F5F5E2F5E2E2E2F5E2F5F5F5F5F5F5F5F5F5F5F5F5F5F5F5F5F5F5F5F5F5F5F5F5F5F5F5F5F5F5F5F5F5F5F5F5F5F5F5F5F5E2F5F5F5F5F5F5F5E2F5F5F5F5F5F5F5F5F5F5F5F5F5F5F5F5F5F5F5F5F5F5F5F5F5F5F5F5F5F5F5F5F5F5F5F5F5F5F5F5F5F5F5F5E2E2E2E2E2E2E2E2E2F5F5F5F5F5F5F5F5F5F5F5F5
310
F5F5F5F5F5F5F5F5F5F5F5F5F5F5F5E2F5F5F5F5F5F5F5F5F5F5F5F5F5F5F5F5F5F5F5F5F5F5F5F5F5F5F5F5F5F5F5F5F5F5F5F5F5F5F5F5F5F5E2F5E2E2E2F5E2F5F5F5F5F5F5F5F5F5F5F5F5F5F5F5F5F5F5F5F5F5F5F5F5F5F5F5F5F5F5F5F5F5F5F5F5F5F5F5F5F5E2F5F5F5F5F5F5F5E2F5F5F5F5F5F5F5F5F5F5F5F5
310
F5F5F5F5F5F5F5F5F5F5F5F5F5F5F5F5F5F5F5F5F5F5F5F5F5F5F5F5F5F5F5F5E2E2E2E2E2E2E2E2E2F5F5F5F5F5F5F5F5F5F5F5F5F5F5F5F5F5F5F5F5F5F5F5F5F5F5F5E2F5F5F5F5F5F5F5F5F5F5F5F5F5F5F5F5F5F5F5F5F5F5F5F5F5F5F5F5F5F5F5F5F5F5F5F5F5F5F5F5F5F5E2F5E2E2E2F5E2F5F5F5F5F5F5F5F5F5
310
F5F5F5F5F5F5F5F5F5F5F5F5F5F5F5F5F5F5F5F5F5F5F5F5F5F5F5F5F5F5F5F5E2F5F5F5F5F5F5F5E2F5F5F5F5F5F5F5F5F5F5F5F5F5F5F5F5F5F5F5F5F5F5F5F5F5F5F5F5F5F5F5F5F5F5F5F5F5F5F5F5F5F5F5F5E2E2E2E2E2E2E2E2E2F5F5F5F5F5F5F5F5F5F5F5F5F5F5F5F5F5F5F5F5F5F5F5F5F5F5F5E2F5F5F5F5F5
310
F5F5F5F5F5F5F5F5F5F5F5F5F5F5F5F5F5F5F5F5F5F5F5F5F5F5F5F5F5F5F5F5F5F5F5F5F5E2F5E2E2E2F5E2F5F5F5F5F5F5F5F5F5F5F5F5F5F5F5F5F5F5F5F5F5F5F5F5F5F5F5F5F5F5F5F5F5F5F5F5F5F5F5F5F5E2F5F5F5F5F5F5F5E2F5F5F5F5F5F5F5F5F5F5F5F5F5F5F5F5F5F5F5F5F5F5F5F5F5F5F5F5F5F5F5F5F5
310
F5F5F5F5F5F5F5F5F5F5F5E2E2E2E2E2E2E2E2E2F5F5F5F5F5F5F5F5F5F5F5F5F5F5F5F5F5F5F5F5F5F5F5F5F5F5F5E2F5F5F5F5F5F5F5F5F5F5F5F5F5F5F5F5F5F5F5F5F5F5F5F5F5F5F5F5F5F5F5F5F5F5F5F5F5F5F5F5F5F5E2F5E2E2E2F5E2F5F5F5F5F5F5F5F5F5F5F5F5F5F5F5F5F5F5F5F5F5F5F5F5F5F5F5F5F5F5
310
F5F5F5F5F5F5F5F5F5F5F5E2F5F5F5F5F5F5F5E2F5F5F5F5F5F5F5F5F5F5F5F5F5F5F5F5F5F5F5F5F5F5F5F5F5F5F5F5F5F5F5F5F5F5F5F5F5F5F5F5F5F5F5E2E2E2E2E2E2E2E2E2E2F5F5F5F5F5F5F5F5F5F5F5F5F5F5F5F5F5F5F5F5F5F5F5F5F5F5F5E2F5F5F5F5F5F5F5F5F5F5F5F5F5F5F5F5F5F5F5F5F5F5F5F5F5F5
310
F5F5F5F5F5F5F5F5F5F5F5F5F5F5F5F5E2F5E2E2E2F5E2F5F5F5F5F5F5F5F5F5F5F5F5F5F5F5F5F5F5F5F5F5F5F5F5F5F5F5F5F5F5F5F5F5F5F5F5F5F5F5F5F5E2F5F5F5F5F5F5F5E2F5F5F5F5F5F5F5F5F5F5F5F5F5F5F5F5F5F5F5F5F5F5F5F5F5F5F5F5F5F5F5F5F5F5F5F5F5F5F5F5F5F5F5E2F5F5F5E2F5E2E2E2E2E2
310
F5F5F5F5F5F5F5F5F5F5F5F5F5F5F5F5F5F5F5F5F5F5F5F5F5F5E2F5F5F5F5F5F5F5F5F5F5F5F5F5F5F5F5F5F5F5F5F5F5F5F5F5F5F5F5F5F5F5F5F5F5F5F5F5F5F5F5F5F5E2F5E2E2E2F5E2F5F5F5F5F5F5F5F5F5F5F5F5F5F5F5F5F5F5F5F5F5F5F5F5F5F5F5F5F5F5F5F5F5F5F5F5F5F5F5F5F5E2F5F5F5F5F5F5F5F5F5
310
F5F5F5F5F5F5F5F5F5F5F5F5F5F5F5F5F5F5F5F5F5F5F5F5F5F5F5F5F5F5F5F5F5F5F5F5F5F5F5F5F5F5E2E2E2E2E2E2E2E2E2E2E2F5F5F5F5F5F5F5F5F5F5F5F5F5F5F5F5F5F5F5F5F5F5F5F5F5F5F5F5F5F5F5F5F5F5F5F5F5F5F5F5F5F5F5F5F5F5F5F5F5F5F5F5F5F5F5F5F5F5F5F5F5F5F5F5F5F5F5F5F5E2F5E2E2E2
310
F5E2F5F5F5F5F5F5F5F5F5F5F5F5F5F5F5F5F5F5F5F5F5F5F5F5F5F5F5F5F5F5F5F5F5F5F5F5F5F5F5F5F5E2F5F5F5F5F5F5F5E2F5F5F5F5F5F5F5F5F5F5F5F5F5F5F5F5F5F5F5F5F5F5F5F5F5F5F5F5F5F5F5F5F5F5F5F5F5F5F5F5F5F5F5F5F5F5F5E2F5E2F5F5F5F5F5F5F5F5F5F5F5F5F5F5F5F5F5F5F5F5F5F5F5F5F5
310
F5F5F5F5F5E2F5F5F5F5F5F5F5F5F5F5F5F5F5F5F5F5F5F5F5F5F5F5F5F5F5F5F5F5F5F5F5F5F5F5F5F5F5F5F5F5F5F5E2F5E2E2E2F5E2F5F5F5F5F5F5F5F5F5F5F5F5F5F5F5F5F5F5F5F5F5F5F5F5F5F5F5F5F5F5F5F5F5F5F5F5F5F5F5F5F5E2F5F5F5F5F5F5F5E2F5F5F5F5F5F5F5F5F5F5F5F5F5F5F5F5F5F5F5F5F5F5
310
F5F5F5F5F5F5F5F5F5F5F5F5F5F5F5F5F5F5F5F5F5F5F5F5F5E2F5E2F5F5F5F5F5F5F5F5F5F5F5F5F5F5F5F5F5F5F5F5F5F5F5F5F5F5F5F5F5F5E2F5F5F5F5F5F5F5F5F5F5F5F5F5F5F5F5F5F5F5F5F5F5F5F5F5F5F5F5F5F5F5F5F5F5F5F5F5F5F5F5F5F5E2F5E2E2E2F5E2F5F5F5F5F5F5F5F5F5F5F5F5F5F5F5F5F5F5F5
310
F5F5F5F5F5F5F5F5F5F5F5F5F5F5F5F5F5F5F5F5F5F5E2F5F5F5F5F5F5F5E2F5F5F5F5F5F5F5F5F5F5F5F5F5F5F5F5F5F5F5F5F5F5F5F5F5F5F5F5F5F5F5F5F5F5F5F5F5F5F5F5F5F5F5F5F5F5F5E2F5E2F5F5F5F5F5F5F5F5F5F5F5F5F5F5F5F5F5F5F5F5F5F5F5F5F5F5F5F5F5F5E2F5F5F5F5F5F5F5F5F5F5F5F5F5F5F5
310
F5F5F5F5F5F5F5F5F5F5F5F5F5F5F5F5F5F5F5F5F5F5F5F5F5F5F5E2F5E2E2E2F5E2F5F5F5F5F5F5F5F5F5F5F5F5F5F5F5F5F5F5F5F5F5F5F5F5F5F5F5F5F5F5F5F5F5F5F5F5F5F5F5F5F5E2F5F5F5F5F5F5F5E2F5F5F5F5F5F5F5F5F5F5F5F5F5F5F5F5F5F5F5F5F5F5F5F5F5F5F5F5F5F5F5F5F5F5F5F5F5F5F5F5F5F5F5
310
F5F5F5F5E2F5E2F5F5F5F5F5F5F5F5F5F5F5F5F5F5F5F5F5F5F5F5F5F5F5F5F5F5F5F5F5F5E2F5F5F5F5F5F5F5F5F5F5F5F5F5F5F5F5F5F5F5F5F5F5F5F5F5F5F5F5F5F5F5F5F5F5F5F5F5F5F5F5F5F5E2F5E2E2E2F5E2F5F5F5F5F5F5F5F5F5F5F5F5F5F5F5F5F5F5F5F5F5F5F5F5F5F5F5F5F5F5F5F5F5F5F5F5F5F5F5F5
310
F5E2F5F5F5F5F5F5F5E2F5F5F5F5F5F5F5F5F5F5F5F5F5F5F5F5F5F5F5F5F5F5F5F5F5F5F5F5F5F5F5F5F5F5F5F5F5F5F5F5F5F5F5F5F5F5F5E2F5E2F5F5F5F5F5F5F5F5F5F5F5F5F5F5F5F5F5F5F5F5F5F5F5F5F5F5F5F5F5F5E2F5F5F5F5F5F5F5F5F5F5F5F5F5F5F5F5F5F5F5F5F5F5F5F5F5F5F5F5F5F5F5F5F5F5F5F5
310
F5F5F5F5F5F5E2F5E2E2E2F5E2F5F5F5F5F5F5F5F5F5F5F5F5F5F5F5F5F5F5F5F5F5F5F5F5F5F5F5F5F5F5F5F5F5F5F5F5F5F5F5F5F5E2F5F5F5F5F5F5F5E2F5F5F5F5F5F5F5F5F5F5F5F5F5F5F5F5F5F5F5F5F5F5F5F5F5F5F5F5F5F5F5F5F5F5F5F5F5F5F5F5F5F5F5F5F5F5F5E2F5E2F5F5F5F5F5F5F5F5F5F5F5F5F5F5
310
F5F5F5F5F5F5F5F5F5F5F5F5F5F5F5F5E2F5F5F5F5F5F5F5F5F5F5F5F5F5F5F5F5F5F5F5F5F5F5F5F5F5F5F5F5F5F5F5F5F5F5F5F5F5F5F5F5F5F5E2F5E2E2E2F5E2F5F5F5F5F5F5F5F5F5F5F5F5F5F5F5F5F5F5F5F5F5F5F5F5F5F5F5F5F5F5F5F5F5F5F5F5F5F5F5F5F5E2F5F5F5F5F5F5F5E2F5F5F5F5F5F5F5F5F5F5F5
310
F5F5F5F5F5F5F5F5F5F5F5F5F5F5F5F5F5F5F5F5F5F5F5F5F5F5F5F5F5F5F5F5F5F5F5F5E2F5E2F5F5F5F5F5F5F5F5F5F5F5F5F5F5F5F5F5F5F5F5F5F5F5F5F5F5F5F5F5F5E2F5F5F5F5F5F5F5F5F5F5F5F5F5F5F5F5F5F5F5F5F5F5F5F5F5F5F5F5F5F5F5F5F5F5F5F5F5F5F5F5F5F5E2F5E2E2E2F5E2F5F5F5F5F5F5F5F5
310
F5F5F5F5F5F5F5F5F5F5F5F5F5F5F5F5F5F5F5F5F5F5F5F5F5F5F5F5F5F5F5F5F5E2F5F5F5F5F5F5F5E2F5F5F5F5F5F5F5F5F5F5F5F5F5F5F5F5F5F5F5F5F5F5F5F5F5F5F5F5F5F5F5F5F5F5F5F5F5F5F5F5F5F5F5F5F5F5F5E2F5E2F5F5F5F5F5F5F5F5F5F5F5F5F5F5F5F5F5F5F5F5F5F5F5F5F5F5F5F5F5F5E2F5F5F5F5
310
F5F5F5F5F5F5F5F5F5F5F5F5F5F5F5F5F5F5F5F5F5F5F5F5F5F5F5F5F5F5F5F5F5F5F5F5F5F5E2F5E2E2E2F5E2F5F5F5F5F5F5F5F5F5F5F5F5F5F5F5F5F5F5F5F5F5F5F5F5F5F5F5F5F5F5F5F5F5F5F5F5F5F5F5F5F5E2F5F5F5F5F5F5F5F5F5F5F5F5F5F5F5F5F5F5F5F5F5F5F5F5F5F5F5F5F5F5F5F5F5F5F5F5F5F5F5F5
310
F5F5F5F5F5F5F5F5F5F5F5F5F5F5F5E2F5E2F5F5F5F5F5F5F5F5F5F5F5F5F5F5F5F5F5F5F5F5F5F5F5F5F5F5F5F5F5F5F5F5F5F5F5F5F5F5F5F5F5F5F5F5F5F5F5F5F5F5F5F5F5F5F5F5F5F5F5F5F5F5F5F5F5F5F5F5F5F5F5F5F5E2F5E2E2E2F5E2F5F5F5F5F5F5F5F5F5F5F5F5F5F5F5F5F5F5F5F5F5F5F5F5F5F5F5F5F5
310
F5F5F5F5F5F5F5F5F5F5F5F5E2F5F5F5F5F5F5F5E2F5F5F5F5F5F5F5F5F5F5F5F5F5F5F5F5F5F5F5F5F5F5F5F5F5F5F5F5F5F5F5F5F5F5F5F5F5F5F5F5F5F5F5F5F5F5F5E2F5E2F5F5F5F5F5F5F5F5F5F5F5F5F5F5F5F5F5F5F5F5F5F5F5F5F5F5F5F5F5F5E2F5F5F5F5F5F5F5F5F5F5F5F5F5F5F5F5F5F5F5F5F5F5F5F5F5
310
F5F5F5F5F5F5F5F5F5F5F5F5F5F5F5F5F5E2F5E2E2E2F5E2F5F5F5F5F5F5F5F5F5F5F5F5F5F5F5F5F5F5F5F5F5F5F5F5F5F5F5F5F5F5F5F5F5F5F5F5F5E2E2E2F5E2F5F5F5F5F5F5F5E2F5F5F5F5F5F5F5F5F5F5F5F5F5F5F5F5F5F5F5F5F5F5F5F5F5F5F5F5F5F5F5F5F5F5F5F5F5F5F5F5F5F5F5F5F5F5F5E2F5E2F5F5F5
310
F5F5F5F5F5F5F5F5F5F5F5F5F5F5F5F5F5F5F5F5F5F5F5F5F5F5F5E2F5F5F5F5F5F5F5F5F5F5F5F5F5F5F5F5F5F5F5F5F5F5F5F5F5F5F5F5F5F5F5F5F5F5F5F5F5F5F5F5F5F5E2F5E2E2E2F5E2F5F5F5F5F5F5F5F5F5F5F5F5F5F5F5F5F5F5F5F5F5F5F5F5F5F5F5F5F5F5F5F5F5F5F5F5F5E2E2E2F5E2F5F5F5F5F5F5F5E2
310
F5F5F5F5F5F5F5F5F5F5F5F5F5F5F5F5F5F5F5F5F5F5F5F5F5F5F5F5F5F5F5F5F5F5F5F5F5F5F5F5F5F5F5F5F5F5F5E2F5E2F5F5F5F5F5F5F5F5F5F5F5F5F5F5F5F5F5F5F5F5F5F5F5F5F5F5F5F5F5F5E2F5F5F5F5F5F5F5F5F5F5F5F5F5F5F5F5F5F5F5F5F5F5F5F5F5F5F5F5F5F5F5F5F5F5F5F5F5F5F5F5F5F5E2F5E2E2
310
E2F5E2F5F5F5F5F5F5F5F5F5F5F5F5F5F5F5F5F5F5F5F5F5F5F5F5F5F5F5F5F5F5F5F5F5F5F5F5F5E2E2E2F5E2F5F5F5F5F5F5F5E2F5F5F5F5F5F5F5F5F5F5F5F5F5F5F5F5F5F5F5F5F5F5F5F5F5F5F5F5F5F5F5F5F5F5F5F5F5F5F5F5F5F5F5F5F5F5F5E2F5E2F5F5F5F5F5F5F5F5F5F5F5F5F5F5F5F5F5F5F5F5F5F5F5F5
310
F5F5F5F5F5F5E2F5F5F5F5F5F5F5F5F5F5F5F5F5F5F5F5F5F5F5F5F5F5F5F5F5F5F5F5F5F5F5F5F5F5F5F5F5F5F5F5F5F5E2F5E2E2E2F5E2F5F5F5F5F5F5F5F5F5F5F5F5F5F5F5F5F5F5F5F5F5F5F5F5F5F5F5F5F5F5F5F5F5F5F5F5F5E2E2E2F5E2F5F5F5F5F5F5F5F5F5F5F5F5F5F5F5F5F5F5F5F5F5F5F5F5F5F5F5F5F5
310
F5F5F5F5F5F5F5F5F5F5F5F5F5F5F5F5F5F5F5F5F5F5F5F5F5F5E2F5E2F5F5F5F5F5F5F5F5F5F5F5F5F5F5F5F5F5F5F5F5F5F5F5F5F5F5F5F5F5F5F5F5F5F5F5F5F5F5F5F5F5F5F5F5F5F5F5F5F5F5F5F5F5F5F5F5F5F5F5F5F5F5F5F5F5F5F5F5F5F5F5F5F5E2F5E2E2E2F5E2F5F5F5F5F5F5F5F5F5F5F5F5F5F5F5F5F5F5
310
F5F5F5F5F5F5F5F5F5F5F5F5F5F5F5F5F5F5F5E2E2E2F5E2F5F5F5F5F5F5F5E2F5F5F5F5F5F5F5F5F5F5F5F5F5F5F5F5F5F5F5F5F5F5F5F5F5F5F5F5F5F5F5F5F5F5F5F5F5F5F5F5F5F5F5F5F5F5F5E2F5E2F5F5F5F5F5F5F5F5F5F5F5F5F5F5F5F5F5F5F5F5F5F5F5F5F5F5F5F5F5F5E2F5F5F5F5F5F5F5F5F5F5F5F5F5F5
310
F5F5F5F5F5F5F5F5F5F5F5F5F5F5F5F5F5F5F5F5F5F5F5F5F5F5F5F5E2F5E2E2E2F5E2F5F5F5F5F5F5F5F5F5F5F5F5F5F5F5F5F5F5F5F5F5F5F5F5F5F5F5F5F5F5F5F5F5F5F5F5F5F5F5F5F5E2F5F5F5F5F5F5F5E2F5F5F5F5F5F5F5F5F5F5F5F5F5F5F5F5F5F5F5F5F5F5F5F5F5F5F5F5F5F5F5F5F5F5F5F5F5F5F5F5F5F5
310
F5F5F5F5F5E2F5E2F5F5F5F5F5F5F5F5F5F5F5F5F5F5F5F5F5F5F5F5F5F5F5F5F5F5F5F5F5F5E2F5F5F5F5F5F5F5F5F5F5F5F5F5F5F5F5F5F5F5F5F5F5F5F5F5F5F5F5F5F5F5F5F5F5F5F5F5F5F5F5F5F5E2F5E2E2E2F5E2F5F5F5F5F5F5F5F5F5F5F5F5F5F5F5F5F5F5F5F5F5F5F5F5F5F5F5F5F5F5F5F5F5F5F5F5F5F5F5
310
F5F5E2F5F5F5F5F5F5F5E2F5F5F5F5F5F5F5F5F5F5F5F5F5F5F5F5F5F5F5F5F5F5F5F5F5F5F5F5F5F5F5F5F5F5F5F5F5F5F5F5F5F5F5F5F5F5F5E2F5E2F5F5F5F5F5F5F5F5F5F5F5F5F5F5F5F5F5F5F5F5F5F5F5F5F5F5F5F5F5F5E2F5F5F5F5F5F5F5F5F5F5F5F5F5F5F5F5F5F5F5F5F5F5F5F5F5F5F5F5F5F5F5F5F5F5F5
310
F5F5F5F5F5F5F5E2F5E2E2E2F5E2F5F5F5F5F5F5F5F5F5F5F5F5F5F5F5F5F5F5F5F5F5F5F5F5F5F5F5F5F5F5F5F5F5F5F5F5F5F5F5F5F5E2F5F5F5F5F5F5F5E2F5F5F5F5F5F5F5F5F5F5F5F5F5F5F5F5F5F5F5F5F5F5F5F5F5F5F5F5F5F5F5F5F5F5F5F5F5F5F5F5F5F5F5F5F5F5F5E2F5E2F5F5F5F5F5F5F5F5F5F5F5F5F5
310
F5F5F5F5F5F5F5F5F5F5F5F5F5F5F5F5F5E2F5F5F5F5F5F5F5F5F5F5F5F5F5F5F5F5F5F5F5F5F5F5F5F5F5F5F5F5F5F5F5F5F5F5F5F5F5F5F5F5F5F5E2F5E2E2E2F5E2F5F5F5F5F5F5F5F5F5F5F5F5F5F5F5F5F5F5F5F5F5F5F5F5F5F5F5F5F5F5F5F5F5F5F5F5F5F5F5F5F5E2F5F5F5F5F5F5F5E2F5F5F5F5F5F5F5F5F5F5
310
F5F5F5F5F5F5F5F5F5F5F5F5F5F5F5F5F5F5F5F5F5F5F5F5F5F5F5F5F5F5F5F5F5F5F5F5F5E2F5E2F5F5F5F5F5F5F5F5F5F5F5F5F5F5F5F5F5F5F5F5F5F5F5F5F5F5F5F5F5F5E2F5F5F5F5F5F5F5F5F5F5F5F5F5F5F5F5F5F5F5F5F5F5F5F5F5F5F5F5F5F5F5F5F5F5F5F5F5F5F5F5F5F5E2F5E2E2E2F5E2F5F5F5F5F5F5F5
310
F5F5F5F5F5F5F5F5F5F5F5F5F5F5F5F5F5F5F5F5F5F5F5F5F5F5F5F5F5F5F5F5F5F5E2F5F5F5F5F5F5F5E2F5F5F5F5F5F5F5F5F5F5F5F5F5F5F5F5F5F5F5F5F5F5F5F5F5F5F5F5F5F5F5F5F5F5F5F5F5F5F5F5F5F5F5F5F5F5F5E2F5E2F5F5F5F5F5F5F5F5F5F5F5F5F5F5F5F5F5F5F5F5F5F5F5F5F5F5F5F5F5F5E2F5F5F5
310
F5F5F5F5F5F5F5F5F5F5F5F5F5F5F5F5F5F5F5F5F5F5F5F5F5F5F5F5F5F5F5F5F5F5F5F5F5F5F5E2F5E2E2E2F5E2F5F5F5F5F5F5F5F5F5F5F5F5F5F5F5F5F5F5F5F5F5F5F5F5F5F5F5F5F5F5F5F5F5F5F5F5F5F5F5F5F5E2F5F5F5F5F5F5F5E2F5F5F5F5F5F5F5F5F5F5F5F5F5F5F5F5F5F5F5F5F5F5F5F5F5F5F5F5F5F5F5
310
F5F5F5F5F5F5F5F5F5F5F5F5F5F5F5F5E2F5E2F5F5F5F5F5F5F5F5F5F5F5F5F5F5F5F5F5F5F5F5F5F5F5F5F5F5F5F5F5F5E2F5F5F5F5F5F5F5F5F5F5F5F5F5F5F5F5F5F5F5F5F5F5F5F5F5F5F5F5F5F5F5F5F5F5F5F5F5F5F5F5F5F5E2F5E2E2E2F5E2F5F5F5F5F5F5F5F5F5F5F5F5F5F5F5F5F5F5F5F5F5F5F5F5F5F5F5F5
310
F5F5F5F5F5F5F5F5F5F5F5F5F5E2F5F5F5F5F5F5F5E2F5F5F5F5F5F5F5F5F5F5F5F5F5F5F5F5F5F5F5F5F5F5F5F5F5F5F5F5F5F5F5F5F5F5F5F5F5F5F5F5F5F5F5F5F5F5F5E2F5E2F5F5F5F5F5F5F5F5F5F5F5F5F5F5F5F5F5F5F5F5F5F5F5F5F5F5F5F5F5F5E2F5F5F5F5F5F5F5F5F5F5F5F5F5F5F5F5F5F5F5F5F5F5F5F5
310
F5F5F5F5F5F5F5F5F5F5F5F5F5F5F5F5F5F5E2F5E2E2E2F5E2F5F5F5F5F5F5F5F5F5F5F5F5F5F5F5F5F5F5F5F5F5F5F5F5F5F5F5F5F5F5F5F5F5F5F5F5F5F5F5F5F5E2F5F5F5F5F5F5F5F5F5F5F5F5F5F5F5F5F5F5F5F5F5F5F5F5F5F5F5F5F5F5F5F5F5F5F5F5F5F5F5F5F5F5F5F5F5F5F5F5F5F5F5F5F5F5F5E2F5E2F5F5
310
F5F5F5F5F5F5F5F5F5F5F5F5F5F5F5F5F5F5F5F5F5F5F5F5F5F5F5F5F5F5F5F5F5F5F5F5F5F5F5F5F5F5F5F5F5F5F5F5F5F5F5F5F5F5F5F5F5F5F5F5F5F5F5F5F5F5F5F5F5F5F5E2F5E2E2E2F5E2F5F5F5F5F5F5F5F5F5F5F5F5F5F5F5F5F5F5F5F5F5F5F5F5F5F5F5F5F5F5F5F5F5F5F5F5F5F5F5F5F5E2F5F5F5F5F5F5F5
310
E2F5F5F5F5F5F5F5F5F5F5F5F5F5F5F5F5F5F5F5F5F5F5F5F5F5F5F5F5F5F5F5F5F5F5F5F5F5F5F5F5F5F5F5F5F5F5F5E2F5E2F5F5F5F5F5F5F5F5F5F5F5F5F5F5F5F5F5F5F5F5F5F5F5F5F5F5F5F5F5F5E2F5F5F5F5F5F5F5F5F5F5F5F5F5F5F5F5F5F5F5F5F5F5F5F5F5F5F5F5F5F5F5F5F5F5F5F5F5F5F5F5F5F5E2F5E2
310
E2E2F5E2F5F5F5F5F5F5F5F5F5F5F5F5F5F5F5F5F5F5F5F5F5F5F5F5F5F5F5F5F5F5F5F5F5F5F5F5F5F5F5F5F5E2F5F5F5F5F5F5F5E2F5F5F5F5F5F5F5F5F5F5F5F5F5F5F5F5F5F5F5F5F5F5F5F5F5F5F5F5F5F5F5F5F5F5F5F5F5F5F5F5F5F5F5F5F5F5F5E2F5E2F5F5F5F5F5F5F5F5F5F5F5F5F5F5F5F5F5F5F5F5F5F5F5
310
F5F5F5F5F5F5F5E2F5F5F5F5F5F5F5F5F5F5F5F5F5F5F5F5F5F5F5F5F5F5F5F5F5F5F5F5F5F5F5F5F5F5F5F5F5F5F5F5F5F5E2F5E2E2E2F5E2F5F5F5F5F5F5F5F5F5F5F5F5F5F5F5F5F5F5F5F5F5F5F5F5F5F5F5F5F5F5F5F5F5F5F5F5F5F5F5F5F5E2F5F5F5F5F5F5F5E2F5F5F5F5F5F5F5F5F5F5F5F5F5F5F5F5F5F5F5F5
310
F5F5F5F5F5F5F5F5F5F5F5F5F5F5F5F5F5F5F5F5F5F5F5F5F5F5F5E2F5E2F5F5F5F5F5F5F5F5F5F5F5F5F5F5F5F5F5F5F5F5F5F5F5F5F5F5F5F5F5F5E2F5F5F5F5F5F5F5F5F5F5F5F5F5F5F5F5F5F5F5F5F5F5F5F5F5F5F5F5F5F5F5F5F5F5F5F5F5F5F5F5F5F5E2F5E2E2E2F5E2F5F5F5F5F5F5F5F5F5F5F5F5F5F5F5F5F5
310
F5F5F5F5F5F5F5F5F5F5F5F5F5F5F5F5F5F5F5F5F5F5F5F5E2F5F5F5F5F5F5F5E2F5F5F5F5F5F5F5F5F5F5F5F5F5F5F5F5F5F5F5F5F5F5F5F5F5F5F5F5F5F5F5F5F5F5F5F5F5F5F5F5F5F5F5F5F5F5F5E2E2E2F5F5F5F5F5F5F5F5F5F5F5F5F5F5F5F5F5F5F5F5F5F5F5F5F5F5F5F5F5F5E2F5F5F5F5F5F5F5F5F5F5F5F5F5
310
F5F5F5F5F5F5F5F5F5F5F5F5F5F5F5F5F5F5F5F5F5F5F5F5F5F5F5F5F5E2F5E2E2E2F5E2F5F5F5F5F5F5F5F5F5F5F5F5F5F5F5F5F5F5F5F5F5F5F5F5F5F5F5F5F5F5F5F5F5F5F5F5F5F5F5F5F5E2F5F5F5F5F5F5F5E2F5F5F5F5F5F5F5F5F5F5F5F5F5F5F5F5F5F5F5F5F5F5F5F5F5F5E2E2F5F5F5F5F5F5F5F5F5F5F5F5F5
310
F5F5F5F5F5F5E2F5E2F5F5F5F5F5F5F5F5F5F5F5F5F5F5F5F5F5F5F5F5F5F5F5F5F5F5F5F5F5F5E2F5F5F5F5F5F5F5F5F5F5F5F5F5F5F5F5F5F5F5F5F5F5F5F5F5F5F5F5F5F5F5F5F5F5F5F5F5F5F5F5F5F5E2F5E2E2E2F5E2F5F5F5F5F5F5F5F5F5F5F5F5F5F5F5F5F5F5F5F5F5F5F5F5F5F5F5F5F5F5F5F5F5F5F5F5F5F5
310
F5F5F5E2F5F5F5F5F5F5F5E2F5F5F5F5F5F5F5F5F5F5F5F5F5F5F5F5F5F5F5F5F5F5F5F5F5F5E2E2E2E2E2E2E2E2E2E2E2E2E2E2E2E2E2E2E2E2E2E2F5E2F5F5F5F5F5F5F5F5F5F5F5F5F5F5F5F5F5F5F5F5F5F5F5F5F5F5F5F5F5F5E2F5F5F5F5F5F5F5F5F5F5F5F5F5F5F5F5F5F5F5F5F5F5F5F5F5F5F5F5F5F5F5F5F5F5
310
F5F5F5F5F5F5F5F5E2F5E2E2E2F5E2F5F5F5F5F5F5F5F5F5F5F5F5F5F5F5F5F5F5F5F5F5F5F5F5F5F5F5F5F5F5F5F5F5F5F5F5F5F5F5F5F5E2F5F5F5F5F5F5F5E2F5F5F5F5F5F5F5F5F5F5F5F5F5F5F5F5F5F5F5F5F5F5F5F5F5F5E2E2E2E2E2E2E2E2E2E2E2E2E2E2E2E2E2E2E2E2E2E2E2E2F5F5F5F5F5F5F5F5F5F5F5F5
310
F5F5F5F5F5F5F5F5F5F5F5F5F5F5F5F5F5F5E2F5F5F5F5F5F5F5F5F5F5F5F5F5F5F5F5F5F5F5F5F5F5F5F5F5F5F5F5F5F5F5F5F5F5F5F5F5F5F5F5F5F5E2F5E2E2E2F5E2F5F5F5F5F5F5F5F5F5F5F5F5F5F5F5F5F5F5F5F5F5F5F5F5F5F5F5F5F5F5F5F5F5F5F5F5F5F5F5F5F5E2F5F5F5F5F5F5F5E2F5F5F5F5F5F5F5F5F5
310
F5F5F5F5F5F5F5F5F5F5F5F5F5F5F5F5F5E2E2F5E2F5F5E2F5F5E2E2F5E2E2F5F5E2F5F5E2F5F5E2F5F5F5F5F5F5F5F5F5F5F5F5F5F5F5F5F5F5F5F5F5F5F5F5F5F5F5F5F5F5F5E2F5F5F5F5F5F5F5F5F5F5F5F5F5F5F5F5F5F5F5F5F5F5F5F5F5F5F5F5F5F5F5F5F5F5F5F5F5F5F5F5F5F5E2F5E2E2E2F5E2F5F5F5F5F5F5
310
F5F5F5F5F5F5F5F5F5F5F5F5F5F5F5F5F5F5F5F5F5F5F5F5F5F5F5F5F5F5F5F5F5F5F5E2F5F5F5F5F5F5F5F5F5F5F5F5F5F5F5F5F5F5F5F5F5F5F5F5F5F5F5F5F5F5F5F5F5F5E2E2F5E2F5F5E2F5F5E2E2F5E2E2F5F5E2F5F5E2F5F5E2F5F5F5F5F5F5F5F5F5F5F5F5F5F5F5F5F5F5F5F5F5F5F5F5F5F5F5F5F5F5F5F5F5F5
310
F5F5F5F5F5F5F5F5F5F5F5F5F5F5F5F5F5F5F5F5F5F5F5F5F5F5F5F5F5F5F5F5F5F5F5F5F5F5F5F5E2F5E2E2E2F5E2F5F5F5F5F5F5F5F5F5F5F5F5F5F5F5F5F5F5F5F5F5F5F5F5F5F5F5F5F5F5F5F5F5F5F5F5F5F5F5F5F5E2F5F5F5F5F5F5F5E2F5F5F5F5F5F5F5F5F5F5F5F5F5F5F5F5F5F5F5F5F5F5F5F5F5F5E2E2F5E2
310
F5F5E2F5F5E2E2F5E2E2F5F5E2F5F5E2F5F5E2F5F5F5F5F5F5F5F5F5F5F5F5F5F5F5F5F5F5F5F5F5F5F5F5F5F5F5F5F5F5F5E2F5F5F5F5F5F5F5F5F5F5F5F5F5F5F5F5F5F5F5F5F5F5F5F5F5F5F5F5F5F5F5F5F5F5F5F5F5F5F5F5F5F5E2F5E2E2E2F5E2F5F5F5F5F5F5F5F5F5F5F5F5F5F5F5F5F5F5F5F5F5F5F5F5F5F5F5
310
F5F5F5F5F5F5F5F5F5F5F5F5F5F5E2F5F5F5F5F5F5F5E2F5F5F5F5F5F5F5F5F5F5F5F5F5F5F5F5F5F5F5F5F5F5F5F5F5F5E2E2F5E2F5F5E2F5F5E2E2F5E2E2F5F5E2F5F5E2F5F5E2F5F5F5F5F5F5F5F5F5F5F5F5F5F5F5F5F5F5F5F5F5F5F5F5F5F5F5F5F5F5F5E2F5F5F5F5F5F5F5F5F5F5F5F5F5F5F5F5F5F5F5F5F5F5F5
310
F5F5F5F5F5F5F5F5F5F5F5F5F5F5F5F5F5F5F5E2F5E2E2E2F5E2F5F5F5F5F5F5F5F5F5F5F5F5F5F5F5F5F5F5F5F5F5F5F5F5F5F5F5F5F5F5F5F5F5F5F5F5F5F5F5F5F5E2F5F5F5F5F5F5F5E2F5F5F5F5F5F5F5F5F5F5F5F5F5F5F5F5F5F5F5F5F5F5F5F5F5F5E2E2F5E2F5F5E2F5F5E2E2F5E2E2F5F5E2F5F5E2F5F5E2F5F5
310
F5F5F5F5F5F5F5F5F5F5F5F5F5F5F5F5F5F5F5F5F5F5F5F5F5F5F5F5F5E2F5F5F5F5F5F5F5F5F5F5F5F5F5F5F5F5F5F5F5F5F5F5F5F5F5F5F5F5F5F5F5F5F5F5F5F5F5F5F5F5F5F5E2F5E2E2E2F5E2F5F5F5F5F5F5F5F5F5F5F5F5F5F5F5F5F5F5F5F5F5F5F5F5F5F5F5F5F5F5F5F5F5F5F5F5F5F5F5F5F5E2F5F5F5F5F5F5
310
F5E2F5F5F5F5F5F5F5F5F5F5F5F5F5F5F5F5F5F5F5F5F5F5F5F5F5F5E2E2F5E2F5F5E2F5F5E2E2F5E2E2F5F5E2F5F5E2F5F5E2F5F5F5F5F5F5F5F5F5F5F5F5F5F5F5F5F5F5F5F5F5F5F5F5F5F5F5F5F5F5F5E2F5F5F5F5F5F5F5F5F5F5F5F5F5F5F5F5F5F5F5F5F5F5F5F5F5F5F5F5F5F5F5F5F5F5F5F5F5F5F5F5F5F5E2F5
310
E2E2E2F5E2F5F5F5F5F5F5F5F5F5F5F5F5F5F5F5F5F5F5F5F5F5F5F5F5F5F5F5F5F5F5F5F5F5F5F5F5F5F5F5F5F5E2F5F5F5F5F5F5F5E2F5F5F5F5F5F5F5F5F5F5F5F5F5F5F5F5F5F5F5F5F5F5F5F5F5F5E2E2F5E2F5F5E2F5F5E2E2F5E2E2F5F5E2F5F5E2F5F5E2F5F5F5F5F5F5F5F5F5F5F5F5F5F5F5F5F5F5F5F5F5F5F5
310
F5F5F5F5F5F5F5F5E2F5F5F5F5F5F5F5F5F5F5F5F5F5F5F5F5F5F5F5F5F5F5F5F5F5F5F5F5F5F5F5F5F5F5F5F5F5F5F5F5F5F5E2F5E2E2E2F5E2F5F5F5F5F5F5F5F5F5F5F5F5F5F5F5F5F5F5F5F5F5F5F5F5F5F5F5F5F5F5F5F5F5F5F5F5F5F5F5F5F5E2F5F5F5F5F5F5F5E2F5F5F5F5F5F5F5F5F5F5F5F5F5F5F5F5F5F5F5
310
F5F5F5F5F5F5F5E2E2E2E2E2E2E2E2E2E2E2E2E2E2E2E2E2E2E2E2E2E2E2E2F5F5F5F5F5F5F5F5F5F5F5F5F5F5F5F5F5F5F5F5F5F5F5F5F5F5F5F5F5F5E2F5F5F5F5F5F5F5F5F5F5F5F5F5F5F5F5F5F5F5F5F5F5F5F5F5F5F5F5F5F5F5F5F5F5F5F5F5F5F5F5F5F5E2F5E2E2E2F5E2F5F5F5F5F5F5F5F5F5F5F5F5F5F5F5F5
310
F5F5F5F5F5F5F5F5F5F5F5F5F5F5F5F5F5F5F5F5F5F5F5F5F5E2F5F5F5F5F5F5F5E2F5F5F5F5F5F5F5F5F5F5F5F5F5F5F5F5F5F5F5F5F5F5F5F5F5F5E2E2E2E2E2E2E2E2E2E2E2E2E2E2E2E2E2E2E2E2E2E2E2E2F5F5F5F5F5F5F5F5F5F5F5F5F5F5F5F5F5F5F5F5F5F5F5F5F5F5F5F5F5F5E2F5F5F5F5F5F5F5F5F5F5F5F5
310
F5F5F5F5F5F5F5F5F5F5F5F5F5F5F5F5F5F5F5F5F5F5F5F5F5F5F5F5F5F5E2F5E2E2E2F5E2F5F5F5F5F5F5F5F5F5F5F5F5F5F5F5F5F5F5F5F5F5F5F5F5F5F5F5F5F5F5F5F5F5F5F5F5F5F5F5F5F5E2F5F5F5F5F5F5F5E2F5F5F5F5F5F5F5F5F5F5F5F5F5F5F5F5F5F5F5F5F5F5F5F5F5F5E2E2F5F5F5F5F5F5F5F5F5F5F5F5
310
F5F5F5F5F5F5F5E2E2E2F5F5F5F5F5F5F5F5F5F5F5F5F5F5F5F5F5F5F5F5F5F5F5F5F5F5F5F5F5F5E2F5F5F5F5F5F5F5F5F5F5F5F5F5F5F5F5F5F5F5F5F5F5F5F5F5F5F5F5F5F5F5F5F5F5F5F5F5F5F5F5F5F5E2F5E2E2E2F5E2F5F5F5F5F5F5F5F5F5F5F5F5F5F5F5F5F5F5F5F5F5F5F5F5F5F5F5F5F5F5F5F5F5F5F5F5F5
310
F5F5F5F5E2F5F5F5F5F5F5F5F5F5F5F5F5F5F5F5F5F5F5F5F5F5F5F5F5F5F5F5F5F5F5F5F5F5F5F5F5F5F5F5F5F5F5F5F5F5F5F5F5F5F5F5F5F5F5F5F5F5F5F5F5F5F5F5F5F5F5F5F5F5F5F5F5F5F5F5F5F5F5F5F5F5F5F5F5F5F5F5F5F5F5F5F5F5F5F5F5F5F5F5F5F5F5F5F5F5F5F5F5F5F5F5F5F5F5F5F5F5F5F5F5F5F5
310
F5F5F5F5F5F5F5F5F5E2F5E2E2E2F5E2F5F5F5F5F5F5F5F5F5F5F5F5F5F5F5F5F5F5F5F5F5F5F5F5F5F5F5F5F5F5F5F5F5F5F5F5F5F5F5F5F5E2F5F5F5F5F5F5F5E2F5F5F5F5F5F5F5F5F5F5F5F5F5F5F5F5F5F5F5F5F5F5F5F5F5F5F5F5F5F5F5F5F5F5F5F5F5F5F5F5F5F5F5F5F5F5F5F5F5F5F5F5F5F5F5F5F5F5F5F5F5
310
F5F5F5F5F5F5F5F5F5F5F5F5F5F5F5F5F5F5F5E2F5F5F5F5F5F5F5F5F5F5F5F5F5F5F5F5F5F5F5F5F5F5F5F5F5F5F5F5F5F5F5F5F5F5F5F5F5F5F5F5F5F5E2F5E2E2E2F5E2F5F5F5F5F5F5F5F5F5F5F5F5F5F5F5F5F5F5F5F5F5F5F5F5F5F5F5F5F5F5F5F5F5F5F5F5F5F5F5F5F5E2F5F5F5F5F5F5F5E2F5F5F5F5F5F5F5F5
310
F5F5F5F5F5F5F5F5F5F5F5F5F5F5F5F5F5F5F5F5F5F5F5F5F5F5F5F5F5F5F5F5F5F5F5F5F5F5F5F5F5F5F5F5F5F5F5F5F5F5F5F5F5F5F5F5F5F5F5F5F5F5F5F5F5F5F5F5F5F5F5F5E2F5F5F5F5F5F5F5F5F5F5F5F5F5F5F5F5F5F5F5F5F5F5F5F5F5F5F5F5F5F5F5F5F5F5F5F5F5F5F5F5F5F5E2F5E2E2E2F5E2F5F5F5F5F5
310
F5F5F5F5F5F5F5F5F5F5F5F5F5F5F5F5F5F5F5F5F5F5F5F5F5F5F5F5F5F5F5F5F5F5F5F5E2F5F5F5F5F5F5F5E2F5F5F5F5F5F5F5F5F5F5F5F5F5F5F5F5F5F5F5F5F5F5F5F5F5F5F5F5F5F5F5F5F5F5F5F5F5F5F5F5F5F5F5F5F5F5F5F5F5F5F5F5F5F5F5F5F5F5F5F5F5F5F5F5F5F5F5F5F5F5F5F5F5F5F5F5F5F5F5F5E2F5
310
F5F5F5F5F5F5F5F5F5F5F5F5F5F5F5F5F5F5F5F5F5F5F5F5F5F5F5F5F5F5F5F5F5F5F5F5F5F5F5F5F5E2F5E2E2E2F5E2F5F5F5F5F5F5F5F5F5F5F5F5F5F5F5F5F5F5F5F5F5F5F5F5F5F5F5F5F5F5F5F5F5F5F5F5F5F5F5F5F5E2F5F5F5F5F5F5F5E2F5F5F5F5F5F5F5F5F5F5F5F5F5F5F5F5F5F5F5F5F5F5F5F5F5F5F5F5F5
310
F5F5F5F5F5F5F5F5F5F5F5F5F5F5F5F5F5F5F5F5F5F5F5F5F5F5F5F5F5F5F5F5F5F5F5F5F5F5F5F5F5F5F5F5F5F5F5F5F5F5F5E2F5F5F5F5F5F5F5F5F5F5F5F5F5F5F5F5F5F5F5F5F5F5F5F5F5F5F5F5F5F5F5F5F5F5F5F5F5F5F5F5F5F5E2F5E2E2E2F5E2F5F5F5F5F5F5F5F5F5F5F5F5F5F5F5F5F5F5F5F5F5F5F5F5F5F5
310
F5F5F5F5F5F5F5F5F5F5F5F5F5F5F5E2F5F5F5F5F5F5F5E2F5F5F5F5F5F5F5F5F5F5F5F5F5F5F5F5F5F5F5F5F5F5F5F5F5F5F5F5F5F5F5F5F5F5F5F5F5F5F5F5F5F5F5F5F5F5F5F5F5F5F5F5F5F5F5F5F5F5F5F5F5F5F5F5F5F5F5F5F5F5F5F5F5F5F5F5F5F5F5F5E2F5F5F5F5F5F5F5F5F5F5F5F5F5F5F5F5F5F5F5F5F5F5
310
F5F5F5F5F5F5F5F5F5F5F5F5F5F5F5F5F5F5F5F5E2F5E2E2E2F5E2F5F5F5F5F5F5F5F5F5F5F5F5F5F5F5F5F5F5F5F5F5F5F5F5F5F5F5F5F5F5F5F5F5F5F5F5F5F5F5F5F5E2F5F5F5F5F5F5F5E2F5F5F5F5F5F5F5F5F5F5F5F5F5F5F5F5F5F5F5F5F5F5F5F5F5F5F5F5F5F5F5F5F5F5F5F5F5F5F5F5F5F5F5F5F5F5F5F5F5F5
310
F5F5F5F5F5F5F5F5F5F5F5F5F5F5F5F5F5F5F5F5F5F5F5F5F5F5F5F5F5F5E2F5F5F5F5F5F5F5F5F5F5F5F5F5F5F5F5F5F5F5F5F5F5F5F5F5F5F5F5F5F5F5F5F5F5F5F5F5F5F5F5F5F5E2F5E2E2E2F5E2F5F5F5F5F5F5F5F5F5F5F5F5F5F5F5F5F5F5F5F5F5F5F5F5F5F5F5F5F5F5F5F5F5F5F5F5F5F5F5F5F5E2F5F5F5F5F5
310
F5F5E2F5F5F5F5F5F5F5F5F5F5F5F5F5F5F5F5F5F5F5F5F5F5F5F5F5F5F5F5F5F5F5F5F5F5F5F5F5F5F5F5F5F5F5F5F5F5F5F5F5F5F5F5F5F5F5F5F5F5F5F5F5F5F5F5F5F5F5F5F5F5F5F5F5F5F5F5F5F5F5F5E2F5F5F5F5F5F5F5F5F5F5F5F5F5F5F5F5F5F5F5F5F5F5F5F5F5F5F5F5F5F5F5F5F5F5F5F5F5F5F5F5F5F5E2
310
F5E2E2E2F5E2F5F5F5F5F5F5F5F5F5F5F5F5F5F5F5F5F5F5F5F5F5F5F5F5F5F5F5F5F5F5F5F5F5F5F5F5F5F5F5F5F5E2F5F5F5F5F5F5F5E2F5F5F5F5F5F5F5F5F5F5F5F5F5F5F5F5F5F5F5F5F5F5F5F5F5F5F5F5F5F5F5F5F5F5F5F5F5F5F5F5F5F5F5F5F5F5F5F5F5F5F5F5F5F5F5F5F5F5F5F5F5F5F5F5F5F5F5F5F5F5F5
310
F5F5F5F5F5F5F5F5F5E2F5F5F5F5F5F5F5F5F5F5F5F5F5F5F5F5F5F5F5F5F5F5F5F5F5F5F5F5F5F5F5F5F5F5F5F5F5F5F5F5F5F5E2F5E2E2E2F5E2F5F5F5F5F5F5F5F5F5F5F5F5F5F5F5F5F5F5F5F5F5F5F5F5F5F5F5F5F5F5F5F5F5F5F5F5F5F5F5F5F5E2F5F5F5F5F5F5F5F5F5F5F5F5F5F5F5F5F5F5F5F5F5F5F5F5F5F5
310
F5F5F5F5F5F5F5F5F5F5F5F5F5F5F5F5F5F5F5F5F5F5F5F5F5F5F5F5F5F5F5F5F5F5F5F5F5F5F5F5F5F5F5F5F5F5F5F5F5F5F5F5F5F5F5F5F5F5F5F5F5F5F5F5F5F5F5F5F5F5F5F5F5F5F5F5F5F5F5F5F5F5F5F5F5F5F5F5F5F5F5F5F5F5F5F5F5F5F5F5F5F5F5F5F5E2F5E2E2E2F5E2F5F5F5F5F5F5F5F5F5F5F5F5F5F5F5
310
F5F5F5F5F5F5F5F5F5F5F5F5F5F5F5F5F5F5F5F5F5F5F5F5F5F5E2F5F5F5F5F5F5F5E2F5F5F5F5F5F5F5F5F5F5F5F5F5F5F5F5F5F5F5F5F5F5F5F5F5F5F5F5F5F5F5F5F5F5F5F5F5F5F5F5F5F5F5F5F5F5F5F5F5F5F5F5F5F5F5F5F5F5F5F5F5F5F5F5F5F5F5F5F5F5F5F5F5F5F5F5F5F5F5F5E2F5F5F5F5F5F5F5F5F5F5F5
310
F5F5F5F5F5F5F5F5F5F5F5F5F5F5F5F5F5F5F5F5F5F5F5F5F5F5F5F5F5F5F5E2F5E2E2E2F5E2F5F5F5F5F5F5F5F5F5F5F5F5F5F5F5F5F5F5F5F5F5F5F5F5F5F5F5F5F5F5F5F5F5F5F5F5F5F5F5F5F5E2F5F5F5F5F5F5F5E2F5F5F5F5F5F5F5F5F5F5F5F5F5F5F5F5F5F5F5F5F5F5F5F5F5F5F5F5F5F5F5F5F5F5F5F5F5F5F5
310
F5F5F5F5F5F5F5F5F5F5F5F5F5F5F5F5F5F5F5F5F5F5F5F5F5F5F5F5F5F5F5F5F5F5F5F5F5F5F5F5F5E2F5F5F5F5F5F5F5F5F5F5F5F5F5F5F5F5F5F5F5F5F5F5F5F5F5F5F5F5F5F5F5F5F5F5F5F5F5F5F5F5F5F5E2F5E2E2E2F5E2F5F5F5F5F5F5F5F5F5F5F5F5F5F5F5F5F5F5F5F5F5F5F5F5F5F5F5F5F5F5F5F5F5F5F5F5
310
F5F5F5F5F5E2F5F5F5F5F5F5F5E2F5F5F5F5F5F5F5F5F5F5F5F5F5F5F5F5F5F5F5F5F5F5F5F5F5F5F5F5F5F5F5F5F5F5F5F5F5F5F5F5F5F5F5F5F5F5F5F5F5F5F5F5F5F5F5F5F5F5F5F5F5F5F5F5F5F5F5F5F5F5F5F5F5F5F5F5F5F5F5F5E2F5F5F5F5F5F5F5F5F5F5F5F5F5F5F5F5F5F5F5F5F5F5F5F5F5F5F5F5F5F5F5F5
310
F5F5F5F5F5F5F5F5F5F5E2F5E2E2E2F5E2F5F5F5F5F5F5F5F5F5F5F5F5F5F5F5F5F5F5F5F5F5F5F5F5F5F5F5F5F5F5F5F5F5F5F5F5F5F5F5F5F5E2F5F5F5F5F5F5F5E2F5F5F5F5F5F5F5F5F5F5F5F5F5F5F5F5F5F5F5F5F5F5F5F5F5F5F5F5F5F5F5F5F5F5F5F5F5F5F5F5F5F5F5F5F5F5F5F5F5F5F5F5F5F5F5F5F5F5F5F5
310
F5F5F5F5F5F5F5F5F5F5F5F5F5F5F5F5F5F5F5F5E2F5F5F5F5F5F5F5F5F5F5F5F5F5F5F5F5F5F5F5F5F5F5F5F5F5F5F5F5F5F5F5F5F5F5F5F5F5F5F5F5F5F5E2F5E2E2E2F5E2F5F5F5F5F5F5F5F5F5F5F5F5F5F5F5F5F5F5F5F5F5F5F5F5F5F5F5F5F5F5F5F5F5F5F5F5F5F5F5F5F5E2F5F5F5F5F5F5F5E2F5F5F5F5F5F5F5
310
F5F5F5F5F5F5F5F5F5F5F5F5F5F5F5F5F5F5F5F5F5F5F5F5F5F5F5F5F5F5F5F5F5F5F5F5F5F5F5F5F5F5F5F5F5F5F5F5F5F5F5F5F5F5F5F5F5F5F5F5F5F5F5F5F5F5F5F5F5F5F5F5F5E2F5F5F5F5F5F5F5F5F5F5F5F5F5F5F5F5F5F5F5F5F5F5F5F5F5F5F5F5F5F5F5F5F5F5F5F5F5F5F5F5F5F5E2F5E2E2E2F5E2F5F5F5F5
310
F5F5F5F5F5F5F5F5F5F5F5F5F5F5F5F5F5F5F5F5F5F5F5F5F5F5F5F5F5F5F5F5F5F5F5F5F5E2BEF5F5F5F5F5F5E2F5F5F5F5F5F5F5F5F5F5F5F5F5F5F5F5F5F5F5F5F5F5F5F5F5F5F5F5F5F5F5F5F5F5F5F5F5F5F5F5F5F5F5F5F5F5F5F5F5F5F5F5F5F5F5F5F5F5F5F5F5F5F5F5F5F5F5F5F5F5F5F5F5F5F5F5F5F5F5F5E2
310
F5F5F5F5F5F5F5F5F5F5F5F5F5F5F5F5F5F5F5F5F5F5F5F5F5F5F5F5F5F5F5F5F5F5F5F5F5F5F5F5F5F5E2F5E2E2E2F5E2F5F5F5F5F5F5F5F5F5F5F5F5F5F5F5F5F5F5F5F5F5F5F5F5F5F5F5F5F5F5F5F5F5F5F5F5F5F5F5F5E2E2E2E2F5F5F5F5F5E2E2F5E2E2E2E2E2E2E2E2F5E2E2E2E2E2E2E2E2F5E2E2E2E2E2E2E2E2
310
F5E2E2E2E2E2E2E2E2F5E2E2E2E2E2E2E2E2F5E2E2E2E2E2E2E2E2F5E2E2E2E2F5E2E2E2E2E2E2E2E2F5E2E2E2E2E2E2E2E2F5E2E2F5F5F5F5F5F5F5F5F5F5F5F5F5F5F5F5F5F5F5F5F5F5F5F5F5F5F5F5F5F5F5F5F5F5F5F5F5F5F5F5F5F5E2F5E2E2E2F5E2F5F5F5F5F5F5F5F5F5F5F5F5F5F5F5F5F5F5F5F5F5F5F5F5F5
310
F5F5F5F5F5F5F5F5F5F5F5F5F5F5F5BEE2F5F5F5F5F5F5F5F5F5F5F5F5F5F5F5F5F5F5F5F5F5F5F5F5F5F5F5F5F5F5F5F5F5F5F5F5F5F5F5F5F5F5F5F5F5F5F5F5F5F5F5F5F5F5F5F5F5F5F5F5F5F5F5F5F5F5F5F5F5F5F5F5F5F5F5F5F5F5F5F5F5F5F5F5F5F5F5F5F5F5F5F5F5F5F5F5F5F5F5F5F5F5F5F5F5F5F5F5F5F5
310
F5F5F5F5F5F5F5F5F5F5F5F5F5F5F5F5F5F5F5F5F5E2F5E2E2E2F5E2F5F5F5F5F5F5F5F5F5F5F5F5F5F5F5F5F5F5F5F5F5F5F5F5F5F5F5F5F5F5F5F5F5F5F5F5F5F5F5F5F5F5F5F5F5F5F5F5F5F5F5F5F5F5F5F5F5F5F5F5F5F5F5F5F5F5F5F5F5F5F5F5F5F5F5F5F5F5F5F5F5F5F5F5F5F5F5F5F5F5F5F5F5F5F5F5F5F5F5
310
F5F5F5F5F5F5F5F5F5F5F5F5F5F5F5F5F5F5F5F5F5F5F5F5F5F5F5F5F5F5F5F5F5F5F5F5F5F5F5F5F5F5F5F5F5F5F5F5F5F5F5F5F5F5F5F5F5F5F5F5F5F5F5F5F5F5F5F5F5F5F5F5F5F5E2F5E2E2E2F5E2F5F5F5F5F5F5F5F5F5F5F5F5F5F5F5F5F5F5F5F5F5F5F5F5F5F5F5F5F5F5F5F5F5F5F5F5F5F5F5F5F5F5F5F5F5F5
310
F5F5F5F5F5F5F5F5F5F5F5F5F5F5F5F5F5F5F5F5F5F5F5F5F5F5F5F5F5F5F5F5F5F5F5F5F5F5F5F5F5F5F5F5F5F5F5F5F5F5F5F5F5F5F5F5F5F5F5F5F5F5F5F5F5F5F5F5F5F5F5F5F5F5F5F5F5F5F5F5F5F5F5F5F5F5F5F5F5F5F5F5F5F5F5F5F5F5F5F5F5F5F5F5F5F5F5F5F5F5F5F5F5F5F5F5F5F5F5F5F5F5F5F5F5F5F5
310
E2F5E2E2E2F5E2F5F5F5F5F5F5F5F5F5F5F5F5F5F5F5F5F5F5F5F5F5F5F5F5F5F5F5F5F5F5F5F5F5F5F5F5F5F5F5F5F5F5F5F5F5F5F5F5F5F5F5F5F5F5F5F5F5F5F5F5F5F5F5F5F5F5F5F5F5F5F5F5F5F5F5F5F5F5F5F5F5F5F5F5F5F5F5F5F5F5F5F5F5F5F5F5F5F5F5F5F5F5F5F5F5F5F5F5F5F5F5F5F5F5F5F5F5F5F5F5
310
F5F5F5F5F5F5F5F5F5F5F5F5F5F5F5F5F5F5F5F5F5F5F5F5F5F5F5F5F5F5F5F5F5F5F5F5F5F5F5F5F5F5F5F5F5F5F5F5F5F5F5F5F5E2F5E2E2E2F5E2F5F5F5F5F5F5F5F5F5F5F5F5F5F5F5F5F5F5F5F5F5F5F5F5F5F5F5F5F5F5F5F5F5F5F5F5F5F5F5F5F5F5F5F5F5F5F5BEF5E2F5F5F5F5F5F5F5F5F5F5F5F5F5F5F5F5F5
310
F5F5F5F5F5F5F5F5F5F5F5F5F5F5F5F5F5F5F5F5F5F5F5F5F5F5F5F5F5F5F5F5F5F5F5F5F5F5F5F5F5F5F5F5F5F5F5F5F5F5F5F5F5F5F5F5F5F5F5F5F5F5BEE2F5F5F5F5F5F5F5F5F5F5F5F5F5F5F5F5F5F5F5F5F5F5F5F5F5F5F5F5F5F5F5F5F5F5F5F5F5F5F5F5F5F5E2F5E2E2E2F5E2F5F5F5F5F5F5F5F5F5F5F5F5F5F5
310
F5F5F5F5F5F5F5F5F5F5F5F5F5F5F5F5F5F5F5F5F5F5F5F5F5F5F5F5F5F5F5F5F5F5BEE2F5F5F5F5F5F5F5F5F5F5F5F5F5F5F5F5F5F5F5F5F5F5F5F5F5F5F5F5F5F5F5F5F5F5F5F5F5F5F5F5F5F5F5F5F5F5F5F5F5F5F5F5F5F5F5F5F5F5F5F5F5F5F5F5F5F5F5F5F5F5F5F5F5F5F5F5F5F5F5F5BEF5F5F5F5F5F5F5F5F5F5
310
F5F5F5F5F5F5F5F5F5F5F5F5F5F5F5F5F5F5F5F5F5F5F5F5F5F5F5F5F5F5F5F5E2F5E2E2E2F5E2F5F5F5F5F5F5F5F5F5F5F5F5F5F5F5F5F5F5F5F5F5F5F5F5F5F5F5F5F5F5F5F5F5F5F5F5F5F5F5F5F5F5F5F5F5F5F5F5E2E2E2E2E2E2E2E2E2E2E2E2E2E2E2E2E2E2E2E2E2E2E2E2E2E2E2E2E2E2E2E2E2E2E2E2E2E2E2E2
310
E2E2E2E2E2E2E2E2E2E2E2E2E2E2E2E2E2E2E2E2E2E2E2E2E2E2E2E2E2E2E2E2E2E2E2E2E2E2E2E2E2E2E2E2F5F5F5F5F5F5F5F5F5F5F5F5F5F5F5F5F5F5F5F5F5F5F5F5F5F5F5F5F5F5F5F5F5F5F5F5F5F5F5F5F5E2F5E2E2E2F5E2F5F5F5F5F5F5F5F5F5F5F5F5F5F5F5F5F5F5F5F5F5F5F5F5F5F5F5F5F5F5F5F5F5F5F5
310
F5F5F5F5F5F5F5F5F5F5F5F5F5F5E2BEF5F5F5F5F5F5F5F5F5F5F5F5F5F5F5F5F5F5F5F5F5F5F5F5F5F5F5F5F5F5F5F5F5F5F5F5E2E2E2E2E2F5F5F5F5F5F5F5F5F5F5F5F5F5F5F5F5F5F5F5F5F5F5F5F5F5F5F5F5F5F5F5F5F5F5F5F5F5F5E2BEF5F5F5F5F5F5F5F5F5F5F5F5F5F5F5F5F5F5F5F5F5F5F5F5F5F5F5F5F5F5
310
F5F5F5F5F5F5F5F5F5F5F5E2F5E2E2E2F5E2F5F5F5F5F5F5F5F5F5F5F5F5F5F5F5F5F5F5F5F5F5F5F5F5F5F5F5F5F5F5F5F5F5F5F5F5F5F5F5F5F5F5F5F5F5F5F5F5F5F5F5F5F5F5F5F5F5F5F5F5F5F5F5F5F5F5F5F5F5F5F5F5F5F5F5F5F5F5F5F5F5F5F5F5F5F5F5E2E2E2E2E2F5F5F5F5F5F5F5F5F5F5F5F5F5F5F5F5F5
310
F5F5F5F5F5F5F5F5F5F5F5F5F5F5F5F5F5F5F5F5F5F5F5F5F5F5F5F5F5F5F5F5F5F5F5F5F5F5F5F5F5F5F5F5F5F5F5F5F5F5F5F5F5F5F5F5F5F5F5F5F5F5F5F5E2F5E2E2E2F5E2F5F5F5F5F5F5F5F5F5F5F5F5F5F5F5F5F5F5F5F5F5F5F5F5F5F5F5F5F5F5F5F5F5F5F5F5F5F5F5F5F5F5F5F5F5F5F5F5F5F5F5F5F5F5F5F5
310
F5F5F5F5F5F5F5F5F5F5F5F5F5F5F5F5F5F5F5F5F5F5F5F5F5F5F5F5F5F5F5E2E2E2E2E2F5F5F5F5F5F5F5F5F5F5F5F5F5F5F5F5F5F5F5F5F5F5F5F5F5F5F5F5F5F5F5F5F5F5F5F5F5F5F5F5F5F5F5F5F5F5F5F5F5F5F5F5F5F5F5F5F5F5F5F5F5F5F5F5F5F5F5F5F5F5F5F5F5F5F5F5F5F5F5F5F5E2F5E2E2E2F5E2F5F5F5
310
F5F5F5F5F5F5F5F5F5F5F5F5F5F5F5F5F5F5F5F5F5F5F5F5F5F5F5F5F5F5F5F5F5F5F5F5F5F5F5F5F5F5F5F5F5F5F5F5F5F5F5F5F5F5F5F5F5F5F5F5F5F5F5F5F5F5F5F5F5F5F5F5F5F5F5F5F5F5F5F5F5F5F5F5F5F5F5F5F5F5F5F5F5F5F5F5F5F5F5F5F5F5F5F5F5F5F5F5F5F5F5F5F5F5F5F5F5F5F5F5F5F5F5F5F5F5F5
310
F5F5F5F5F5F5F5F5F5F5F5F5F5F5F5F5F5F5F5F5F5F5F5F5F5F5F5F5F5F5F5F5F5F5F5F5F5F5F5F5F5F5F5E2F5E2E2E2F5E2F5F5F5F5F5F5F5F5F5F5F5F5F5F5F5F5F5F5F5F5F5F5F5F5F5F5F5F5F5F5F5F5F5F5F5F5F5F5F5F5F5F5F5F5F5F5F5F5F5F5F5F5F5F5F5F5F5F5F5F5F5F5F5F5F5F5F5F5F5F5F5F5F5F5F5F5F5
310
F5F5F5F5F5F5F5F5F5F5F5F5F5F5F5F5F5F5F5F5F5F5F5F5F5F5F5F5F5F5F5F5F5F5F5F5F5F5F5F5F5F5F5F5F5F5F5F5F5F5F5F5F5F5F5F5F5F5F5F5F5F5F5F5F5F5F5F5F5F5F5F5F5F5F5F5F5F5F5F5F5F5F5F5F5F5F5F5F5F5F5F5F5F5F5F5E2F5E2E2E2F5E2F5F5F5F5F5F5F5F5F5F5F5F5F5F5F5F5F5F5F5F5F5F5F5F5
310
F5F5F5F5F5F5F5F5F5F5F5F5F5F5F5F5F5F5F5F5F5F5F5F5F5F5F5F5F5F5F5F5F5F5F5F5F5F5F5F5F5F5F5F5F5F5F5F5F5F5F5F5F5F5F5F5F5F5F5F5F5F5F5F5F5F5F5F5F5F5F5F5F5F5F5F5F5F5F5F5F5F5F5F5F5F5F5F5F5F5F5F5F5F5F5F5F5F5F5F5F5F5F5F5F5F5F5F5F5F5F5F5F5F5F5F5F5F5F5F5F5F5F5F5F5F5F5
310
F5F5F5F5F5F5F5F5F5F5F5F5F5F5F5F5F5F5F5F5F5F5E2F5E2E2E2F5E2F5F5F5F5F5F5F5F5F5F5F5F5F5F5F5F5F5F5F5F5F5F5F5F5F5F5F5F5F5F5F5F5F5F5F5F5F5F5F5F5F5F5F5F5F5F5F5F5F5F5F5F5F5F5F5F5F5F5F5F5F5F5F5F5F5F5F5F5F5F5F5F5F5F5F5F5F5F5F5F5F5F5F5F5F5F5F5F5F5F5F5F5F5F5F5F5F5F5
310
F5F5F5F5F5F5F5F5F5F5F5F5F5F5F5F5F5F5F5F5F5F5F5F5F5F5F5F5F5F5F5F5F5F5F5F5F5F5F5F5F5F5F5F5F5F5F5F5F5F5F5F5F5F5F5F5F5F5F5F5F5F5F5F5F5F5F5F5F5F5F5F5F5F5F5E2F5E2E2E2F5E2F5F5F5F5F5F5F5F5F5F5F5F5F5F5F5F5F5F5F5F5F5F5F5F5F5F5F5F5F5F5F5F5F5F5F5F5F5F5F5F5F5F5F5F5F5
310
F5F5F5F5F5F5F5F5F5F5F5F5F5F5F5F5F5F5F5F5F5F5F5F5F5F5F5F5F5F5F5F5F5F5F5F5F5F5F5F5F5F5F5F5F5F5F5F5F5F5F5F5F5F5F5F5F5F5F5F5F5F5F5F5F5F5F5F5F5F5F5F5F5F5F5F5F5F5F5F5F5F5F5F5F5F5F5F5F5F5F5F5F5F5F5F5F5F5F5F5F5F5F5F5F5F5F5F5F5F5F5F5F5F5F5F5F5F5F5F5F5F5F5F5F5F5F5
310
F5E2F5E2E2E2F5E2F5F5F5F5F5F5F5F5F5F5F5F5F5F5F5F5F5F5F5F5F5F5F5F5F5F5F5F5F5F5F5F5F5F5F5F5F5F5F5F5F5F5F5F5F5F5F5F5F5F5F5F5F5F5F5F5F5F5F5F5F5F5F5F5F5F5F5F5F5F5F5F5F5F5F5F5F5F5F5F5F5F5F5F5F5F5F5F5F5F5F5F5F5F5F5F5F5F5F5F5F5F5F5F5F5F5F5F5F5F5F5F5F5F5F5F5F5F5F5
310
F5F5F5F5F5F5F5F5F5F5F5F5F5F5F5F5F5F5F5F5F5F5F5F5F5F5F5F5F5F5F5F5F5F5F5F5F5F5F5F5F5F5F5F5F5F5F5F5F5F5F5F5F5F5E2F5E2E2E2F5E2F5F5F5F5F5F5F5F5F5F5F5F5F5F5F5F5F5F5F5F5F5F5F5F5F5F5F5F5F5F5F5F5F5F5F5F5F5F5F5F5F5F5F5F5F5F5F5F5F5F5F5F5F5F5F5F5F5F5F5F5F5F5F5F5F5F5
310
F5F5F5F5F5F5F5F5F5F5F5F5F5F5F5F5F5F5F5F5F5F5F5F5F5F5F5F5F5F5F5F5F5F5F5F5F5F5F5F5F5F5F5F5F5F5F5F5F5F5F5F5F5F5F5F5F5F5F5F5F5F5F5F5F5F5F5F5F5F5F5F5F5F5F5F5F5F5F5F5F5F5F5F5F5F5F5F5F5F5F5F5F5F5F5F5F5F5F5F5F5F5F5F5F5F5F5E2F5E2E2E2F5E2F5F5F5F5F5F5F5F5F5F5F5F5F5
310
F5F5F5F5F5F5F5F5F5F5F5F5F5F5F5F5F5F5F5F5F5F5F5F5F5F5F5F5F5F5F5F5F5F5F5F5F5F5F5F5F5F5F5F5F5F5F5F5F5F5F5F5F5F5F5F5F5F5F5F5F5F5F5F5F5F5F5F5F5F5F5F5F5F5F5F5F5F5F5F5F5F5F5F5F5F5F5F5F5F5F5F5F5F5F5F5F5F5F5F5F5F5F5F5F5F5F5F5F5F5F5F5F5F5F5F5F5F5F5F5F5F5F5F5F5F5F5
310
F5F5F5F5F5F5F5F5F5F5F5F5F5F5F5F5F5F5F5F5F5F5F5F5F5F5F5F5F5F5F5F5F5E2F5E2E2E2F5E2F5F5F5F5F5F5F5F5F5F5F5F5F5F5F5F5F5F5F5F5F5F5F5F5F5F5F5F5F5F5F5F5F5F5F5F5F5F5F5F5F5F5F5F5F5F5F5F5F5F5F5F5F5F5F5F5F5F5F5F5F5F5F5F5F5F5F5F5F5F5F5F5F5F5F5F5F5F5F5F5F5F5F5F5F5F5F5
310
F5F5F5F5F5F5F5F5F5F5F5F5F5F5F5F5F5F5F5F5F5F5F5F5F5F5F5F5F5F5F5F5F5F5F5F5F5F5F5F5F5F5F5F5F5F5F5F5F5F5F5F5F5F5F5F5F5F5F5F5F5F5F5F5F5F5F5F5F5F5F5F5F5F5F5F5F5F5F5F5F5F5F5F5F5F5E2F5E2E2E2F5E2F5F5F5F5F5F5F5F5F5F5F5F5F5F5F5F5F5F5F5F5F5F5F5F5F5F5F5F5F5F5F5F5F5F5
310
F5F5F5F5F5F5F5F5F5F5F5F5F5F5F5F5F5F5F5F5F5F5F5F5F5F5F5F5F5F5F5F5F5F5F5F5F5F5F5F5F5F5F5F5F5F5F5F5F5F5F5F5F5F5F5F5F5F5F5F5F5F5F5F5F5F5F5F5F5F5F5F5F5F5F5F5F5F5F5F5F5F5F5F5F5F5F5F5F5F5F5F5F5F5F5F5F5F5F5F5F5F5F5F5F5F5F5F5F5F5F5F5F5F5F5F5F5F5F5F5F5F5F5F5F5F5F5
310
F5F5F5F5F5F5F5F5F5F5F5F5E2F5E2E2E2F5E2E2E2E2E2E2E2E2E2E2E2E2E2E2E2E2E2E2E2E2E2E2E2E2E2E2E2E2E2E2E2E2E2E2E2E2E2E2E2E2E2E2E2E2E2E2E2E2E2E2E2E2E2E2E2E2E2E2E2E2E2E2E2E2E2E2E2E2E2E2E2E2E2E2E2E2E2E2E2E2E2E2E2E2E2E2E2E2E2E2E2E2E2E2E2E2E2E2E2E2E2E2E2E2E2E2E2E2E2
310
E2E2E2E2E2E2E2E2E2E2E2E2E2E2E2E2E2E2E2E2E2E2E2E2E2E2E2E2E2E2E2E2E2E2E2E2E2E2E2E2E2E2E2E2E2E2E2E2E2E2E2E2E2E2E2E2E2E2E2E2E2E2E2E2E2E2F5E2E2E2F5F5F5F5F5F5F5F5F5F5F5F5F5F5F5F5F5F5F5F5F5F5F5F5F5F5F5F5F5F5F5F5F5F5F5F5F5F5F5F5F5F5F5F5F5F5F5F5F5F5F5F5F5F5F5F5F5
310
F5F5F5F5F5F5F5F5F5F5F5F5F5F5F5F5F5F5F5F5F5F5F5F5F5F5F5F5F5F5F5F5F5F5F5F5F5F5F5F5F5F5F5F5F5F5F5F5F5F5F5F5F5F5F5F5F5F5F5F5F5F5F5F5F5F5F5F5F5F5F5F5F5F5F5F5F5F5F5F5F5F5F5F5F5F5F5F5F5F5F5F5F5F5F5F5F5F5F5F5F5F5F5F5F5F5F5F5F5F5F5F5F5F5F5F5F5F5F5F5E2EFE2E2E2E2E2
310
E2E2E2E2E2E2E2E2E2E2E2E2E2E2E2E2E2E2E2E2E2E2E2E2E2E2E2E2E2E2E2E2E2E2E2E2E2E2E2E2E2E2E2E2E2E2E2E2E2E2E2E2E2E2E2E2E2E2E2E2E2E2E2E2E2E2E2E2E2E2E2E2E2E2E2E2E2E2E2E2E2E2E2E2E2E2E2E2E2E2E2E2E2E2E2E2E2E2E2E2E2E2E2E2E2E2E2E2E2E2E2E2E2E2E2E2E2E2E2E2E2E2E2E2E2E2E2
310
E2E2E2E2E2E2E2E2E2E2E2E2E2E2E2E2E2E2E2E2E2E2E2E2E2E2E2E2E2E2E2E2E2E2E2E2E2E2E2E2E2E2E2E2E2E2E2EF
  0
XRECORD
  5
3B91
102
{ACAD_REACTORS
330
3B90
102
}
330
3B90
100
AcDbXrecord
280
     1
102
MATERIAL
148
0.0
149
0.0
149
0.0
 93
        0
 94
      127
282
     0
 72
     1
 77
     1
171
     1
175
     1
179
     1
273
     0
  0
XRECORD
  5
3B8F
102
{ACAD_REACTORS
330
3B8E
102
}
330
3B8E
100
AcDbXrecord
280
     1
102
MATERIAL
148
0.0
149
0.0
149
0.0
 93
        0
 94
      127
282
     0
 72
     1
 77
     1
171
     1
175
     1
179
     1
273
     0
  0
XRECORD
  5
3B93
102
{ACAD_REACTORS
330
3B92
102
}
330
3B92
100
AcDbXrecord
280
     1
102
MATERIAL
148
0.0
149
0.0
149
0.0
 93
        0
 94
      127
282
     0
 72
     1
 77
     1
171
     1
175
     1
179
     1
273
     0
  0
CELLSTYLEMAP
  5
3B8D
102
{ACAD_REACTORS
330
3B7C
102
}
330
3B7C
100
AcDbCellStyleMap
 90
        3
300
CELLSTYLE
  1
TABLEFORMAT_BEGIN
 90
        5
170
     1
 91
        0
 92
    32768
 62
   257
 93
        1
300
CONTENTFORMAT
  1
CONTENTFORMAT_BEGIN
 90
        0
 91
        0
 92
      512
 93
        0
300

 40
0.0
140
1.0
 94
        5
 62
     0
340
11
144
0.25
309
CONTENTFORMAT_END
171
     0
 94
        6
 95
        1
302
GRIDFORMAT
  1
GRIDFORMAT_BEGIN
 90
        0
 91
        1
 62
     0
 92
       -2
340
0
 93
        0
 40
0.045
309
GRIDFORMAT_END
 95
        2
302
GRIDFORMAT
  1
GRIDFORMAT_BEGIN
 90
        0
 91
        1
 62
     0
 92
       -2
340
0
 93
        0
 40
0.045
309
GRIDFORMAT_END
 95
        4
302
GRIDFORMAT
  1
GRIDFORMAT_BEGIN
 90
        0
 91
        1
 62
     0
 92
       -2
340
0
 93
        0
 40
0.045
309
GRIDFORMAT_END
 95
        8
302
GRIDFORMAT
  1
GRIDFORMAT_BEGIN
 90
        0
 91
        1
 62
     0
 92
       -2
340
0
 93
        0
 40
0.045
309
GRIDFORMAT_END
 95
       16
302
GRIDFORMAT
  1
GRIDFORMAT_BEGIN
 90
        0
 91
        1
 62
     0
 92
       -2
340
0
 93
        0
 40
0.045
309
GRIDFORMAT_END
 95
       32
302
GRIDFORMAT
  1
GRIDFORMAT_BEGIN
 90
        0
 91
        1
 62
     0
 92
       -2
340
0
 93
        0
 40
0.045
309
GRIDFORMAT_END
309
TABLEFORMAT_END
  1
CELLSTYLE_BEGIN
 90
        1
 91
        1
300
_TITLE
309
CELLSTYLE_END
300
CELLSTYLE
  1
TABLEFORMAT_BEGIN
 90
        5
170
     1
 91
        0
 92
        0
 62
   257
 93
        1
300
CONTENTFORMAT
  1
CONTENTFORMAT_BEGIN
 90
        0
 91
        0
 92
      512
 93
        0
300

 40
0.0
140
1.0
 94
        5
 62
     0
340
11
144
0.18
309
CONTENTFORMAT_END
171
     0
 94
        6
 95
        1
302
GRIDFORMAT
  1
GRIDFORMAT_BEGIN
 90
        0
 91
        1
 62
     0
 92
       -2
340
0
 93
        0
 40
0.045
309
GRIDFORMAT_END
 95
        2
302
GRIDFORMAT
  1
GRIDFORMAT_BEGIN
 90
        0
 91
        1
 62
     0
 92
       -2
340
0
 93
        0
 40
0.045
309
GRIDFORMAT_END
 95
        4
302
GRIDFORMAT
  1
GRIDFORMAT_BEGIN
 90
        0
 91
        1
 62
     0
 92
       -2
340
0
 93
        0
 40
0.045
309
GRIDFORMAT_END
 95
        8
302
GRIDFORMAT
  1
GRIDFORMAT_BEGIN
 90
        0
 91
        1
 62
     0
 92
       -2
340
0
 93
        0
 40
0.045
309
GRIDFORMAT_END
 95
       16
302
GRIDFORMAT
  1
GRIDFORMAT_BEGIN
 90
        0
 91
        1
 62
     0
 92
       -2
340
0
 93
        0
 40
0.045
309
GRIDFORMAT_END
 95
       32
302
GRIDFORMAT
  1
GRIDFORMAT_BEGIN
 90
        0
 91
        1
 62
     0
 92
       -2
340
0
 93
        0
 40
0.045
309
GRIDFORMAT_END
309
TABLEFORMAT_END
  1
CELLSTYLE_BEGIN
 90
        2
 91
        1
300
_HEADER
309
CELLSTYLE_END
300
CELLSTYLE
  1
TABLEFORMAT_BEGIN
 90
        5
170
     1
 91
        0
 92
        0
 62
   257
 93
        1
300
CONTENTFORMAT
  1
CONTENTFORMAT_BEGIN
 90
        0
 91
        0
 92
      512
 93
        0
300

 40
0.0
140
1.0
 94
        2
 62
     0
340
11
144
0.18
309
CONTENTFORMAT_END
171
     0
 94
        6
 95
        1
302
GRIDFORMAT
  1
GRIDFORMAT_BEGIN
 90
        0
 91
        1
 62
     0
 92
       -2
340
0
 93
        0
 40
0.045
309
GRIDFORMAT_END
 95
        2
302
GRIDFORMAT
  1
GRIDFORMAT_BEGIN
 90
        0
 91
        1
 62
     0
 92
       -2
340
0
 93
        0
 40
0.045
309
GRIDFORMAT_END
 95
        4
302
GRIDFORMAT
  1
GRIDFORMAT_BEGIN
 90
        0
 91
        1
 62
     0
 92
       -2
340
0
 93
        0
 40
0.045
309
GRIDFORMAT_END
 95
        8
302
GRIDFORMAT
  1
GRIDFORMAT_BEGIN
 90
        0
 91
        1
 62
     0
 92
       -2
340
0
 93
        0
 40
0.045
309
GRIDFORMAT_END
 95
       16
302
GRIDFORMAT
  1
GRIDFORMAT_BEGIN
 90
        0
 91
        1
 62
     0
 92
       -2
340
0
 93
        0
 40
0.045
309
GRIDFORMAT_END
 95
       32
302
GRIDFORMAT
  1
GRIDFORMAT_BEGIN
 90
        0
 91
        1
 62
     0
 92
       -2
340
0
 93
        0
 40
0.045
309
GRIDFORMAT_END
309
TABLEFORMAT_END
  1
CELLSTYLE_BEGIN
 90
        3
 91
        2
300
_DATA
309
CELLSTYLE_END
  0
XRECORD
  5
3B94
102
{ACAD_REACTORS
330
3B7C
102
}
330
3B7C
100
AcDbXrecord
280
     1
102
ACAD_ROUNDTRIP_PRE2007_TABLESTYLE
 90
      512
 91
        0
  1

 92
      512
 93
        0
  2

 94
      512
 95
        0
  3

  0
XRECORD
  5
49B
102
{ACAD_REACTORS
330
49A
102
}
330
49A
100
AcDbXrecord
280
     1
102
RTVSPropertyOp0
 70
     1
102
RTVSPropertyOp1
 70
     1
102
RTVSPropertyOp2
 70
     1
102
RTVSPropertyOp3
 70
     1
102
RTVSPropertyOp4
 70
     1
102
RTVSPropertyOp5
 70
     1
102
RTVSPropertyOp6
 70
     1
102
RTVSPropertyOp7
 70
     1
102
RTVSPropertyOp8
 70
     1
102
RTVSPropertyOp9
 70
     1
102
RTVSPropertyOp10
 70
     1
102
RTVSPropertyOp11
 70
     1
102
RTVSPropertyOp12
 70
     1
102
RTVSPropertyOp13
 70
     1
102
RTVSPropertyOp14
 70
     1
102
RTVSPropertyOp15
 70
     1
102
RTVSPropertyOp16
 70
     1
102
RTVSPropertyOp17
 70
     1
102
RTVSPropertyOp18
 70
     1
102
RTVSPropertyOp19
 70
     1
102
RTVSPropertyOp20
 70
     1
102
RTVSPropertyOp21
 70
     1
102
RTVSPropertyOp22
 70
     1
102
RTVSPropertyOp23
 70
     1
102
RTVSPropertyOp24
 70
     1
102
RTVSPropertyOp25
 70
     1
102
RTVSPropertyOp26
 70
     1
102
RTVSPropertyOp27
 70
     1
  0
XRECORD
  5
4A1
102
{ACAD_REACTORS
330
4A0
102
}
330
4A0
100
AcDbXrecord
280
     1
102
RTVSPropertyOp0
 70
     1
102
RTVSPropertyOp1
 70
     1
102
RTVSPropertyOp2
 70
     1
102
RTVSPropertyOp3
 70
     1
102
RTVSPropertyOp4
 70
     1
102
RTVSPropertyOp5
 70
     1
102
RTVSPropertyOp6
 70
     1
102
RTVSPropertyOp7
 70
     1
102
RTVSPropertyOp8
 70
     1
102
RTVSPropertyOp9
 70
     1
102
RTVSPropertyOp10
 70
     1
102
RTVSPropertyOp11
 70
     1
102
RTVSPropertyOp12
 70
     1
102
RTVSPropertyOp13
 70
     1
102
RTVSPropertyOp14
 70
     1
102
RTVSPropertyOp15
 70
     1
102
RTVSPropertyOp16
 70
     1
102
RTVSPropertyOp17
 70
     1
102
RTVSPropertyOp18
 70
     1
102
RTVSPropertyOp19
 70
     1
102
RTVSPropertyOp20
 70
     1
102
RTVSPropertyOp21
 70
     1
102
RTVSPropertyOp22
 70
     1
102
RTVSPropertyOp23
 70
     1
102
RTVSPropertyOp24
 70
     1
102
RTVSPropertyOp25
 70
     1
102
RTVSPropertyOp26
 70
     1
102
RTVSPropertyOp27
 70
     1
  0
XRECORD
  5
4A9
102
{ACAD_REACTORS
330
4A8
102
}
330
4A8
100
AcDbXrecord
280
     1
102
RTVSPropertyOp0
 70
     1
102
RTVSPropertyOp1
 70
     1
102
RTVSPropertyOp2
 70
     1
102
RTVSPropertyOp3
 70
     1
102
RTVSPropertyOp4
 70
     1
102
RTVSPropertyOp5
 70
     1
102
RTVSPropertyOp6
 70
     1
102
RTVSPropertyOp7
 70
     1
102
RTVSPropertyOp8
 70
     1
102
RTVSPropertyOp9
 70
     1
102
RTVSPropertyOp10
 70
     1
102
RTVSPropertyOp11
 70
     1
102
RTVSPropertyOp12
 70
     1
102
RTVSPropertyOp13
 70
     1
102
RTVSPropertyOp14
 70
     1
102
RTVSPropertyOp15
 70
     1
102
RTVSPropertyOp16
 70
     1
102
RTVSPropertyOp17
 70
     1
102
RTVSPropertyOp18
 70
     1
102
RTVSPropertyOp19
 70
     1
102
RTVSPropertyOp20
 70
     1
102
RTVSPropertyOp21
 70
     1
102
RTVSPropertyOp22
 70
     1
102
RTVSPropertyOp23
 70
     1
102
RTVSPropertyOp24
 70
     1
102
RTVSPropertyOp25
 70
     1
102
RTVSPropertyOp26
 70
     1
102
RTVSPropertyOp27
 70
     1
  0
XRECORD
  5
4B1
102
{ACAD_REACTORS
330
4B0
102
}
330
4B0
100
AcDbXrecord
280
     1
102
RTVSPropertyOp0
 70
     1
102
RTVSPropertyOp1
 70
     1
102
RTVSPropertyOp2
 70
     1
102
RTVSPropertyOp3
 70
     1
102
RTVSPropertyOp4
 70
     1
102
RTVSPropertyOp5
 70
     1
102
RTVSPropertyOp6
 70
     1
102
RTVSPropertyOp7
 70
     1
102
RTVSPropertyOp8
 70
     1
102
RTVSPropertyOp9
 70
     1
102
RTVSPropertyOp10
 70
     1
102
RTVSPropertyOp11
 70
     1
102
RTVSPropertyOp12
 70
     1
102
RTVSPropertyOp13
 70
     1
102
RTVSPropertyOp14
 70
     1
102
RTVSPropertyOp15
 70
     1
102
RTVSPropertyOp16
 70
     1
102
RTVSPropertyOp17
 70
     1
102
RTVSPropertyOp18
 70
     1
102
RTVSPropertyOp19
 70
     1
102
RTVSPropertyOp20
 70
     1
102
RTVSPropertyOp21
 70
     1
102
RTVSPropertyOp22
 70
     1
102
RTVSPropertyOp23
 70
     1
102
RTVSPropertyOp24
 70
     1
102
RTVSPropertyOp25
 70
     1
102
RTVSPropertyOp26
 70
     1
102
RTVSPropertyOp27
 70
     1
  0
XRECORD
  5
4A7
102
{ACAD_REACTORS
330
4A6
102
}
330
4A6
100
AcDbXrecord
280
     1
102
RTVSPropertyOp0
 70
     1
102
RTVSPropertyOp1
 70
     1
102
RTVSPropertyOp2
 70
     1
102
RTVSPropertyOp3
 70
     1
102
RTVSPropertyOp4
 70
     1
102
RTVSPropertyOp5
 70
     1
102
RTVSPropertyOp6
 70
     1
102
RTVSPropertyOp7
 70
     1
102
RTVSPropertyOp8
 70
     1
102
RTVSPropertyOp9
 70
     1
102
RTVSPropertyOp10
 70
     1
102
RTVSPropertyOp11
 70
     1
102
RTVSPropertyOp12
 70
     1
102
RTVSPropertyOp13
 70
     1
102
RTVSPropertyOp14
 70
     1
102
RTVSPropertyOp15
 70
     1
102
RTVSPropertyOp16
 70
     1
102
RTVSPropertyOp17
 70
     1
102
RTVSPropertyOp18
 70
     1
102
RTVSPropertyOp19
 70
     1
102
RTVSPropertyOp20
 70
     1
102
RTVSPropertyOp21
 70
     1
102
RTVSPropertyOp22
 70
     1
102
RTVSPropertyOp23
 70
     1
102
RTVSPropertyOp24
 70
     1
102
RTVSPropertyOp25
 70
     1
102
RTVSPropertyOp26
 70
     1
102
RTVSPropertyOp27
 70
     1
  0
XRECORD
  5
4AF
102
{ACAD_REACTORS
330
4AE
102
}
330
4AE
100
AcDbXrecord
280
     1
102
RTVSPropertyOp0
 70
     1
102
RTVSPropertyOp1
 70
     1
102
RTVSPropertyOp2
 70
     1
102
RTVSPropertyOp3
 70
     1
102
RTVSPropertyOp4
 70
     1
102
RTVSPropertyOp5
 70
     1
102
RTVSPropertyOp6
 70
     1
102
RTVSPropertyOp7
 70
     1
102
RTVSPropertyOp8
 70
     1
102
RTVSPropertyOp9
 70
     1
102
RTVSPropertyOp10
 70
     1
102
RTVSPropertyOp11
 70
     1
102
RTVSPropertyOp12
 70
     1
102
RTVSPropertyOp13
 70
     1
102
RTVSPropertyOp14
 70
     1
102
RTVSPropertyOp15
 70
     1
102
RTVSPropertyOp16
 70
     1
102
RTVSPropertyOp17
 70
     1
102
RTVSPropertyOp18
 70
     1
102
RTVSPropertyOp19
 70
     1
102
RTVSPropertyOp20
 70
     1
102
RTVSPropertyOp21
 70
     1
102
RTVSPropertyOp22
 70
     1
102
RTVSPropertyOp23
 70
     1
102
RTVSPropertyOp24
 70
     1
102
RTVSPropertyOp25
 70
     1
102
RTVSPropertyOp26
 70
     1
102
RTVSPropertyOp27
 70
     1
  0
XRECORD
  5
493
102
{ACAD_REACTORS
330
492
102
}
330
492
100
AcDbXrecord
280
     1
102
RTVSPropertyOp0
 70
     1
102
RTVSPropertyOp1
 70
     1
102
RTVSPropertyOp2
 70
     1
102
RTVSPropertyOp3
 70
     1
102
RTVSPropertyOp4
 70
     1
102
RTVSPropertyOp5
 70
     1
102
RTVSPropertyOp6
 70
     1
102
RTVSPropertyOp7
 70
     1
102
RTVSPropertyOp8
 70
     1
102
RTVSPropertyOp9
 70
     1
102
RTVSPropertyOp10
 70
     1
102
RTVSPropertyOp11
 70
     1
102
RTVSPropertyOp12
 70
     1
102
RTVSPropertyOp13
 70
     1
102
RTVSPropertyOp14
 70
     1
102
RTVSPropertyOp15
 70
     1
102
RTVSPropertyOp16
 70
     1
102
RTVSPropertyOp17
 70
     1
102
RTVSPropertyOp18
 70
     1
102
RTVSPropertyOp19
 70
     1
102
RTVSPropertyOp20
 70
     1
102
RTVSPropertyOp21
 70
     1
102
RTVSPropertyOp22
 70
     1
102
RTVSPropertyOp23
 70
     1
102
RTVSPropertyOp24
 70
     1
102
RTVSPropertyOp25
 70
     1
102
RTVSPropertyOp26
 70
     1
102
RTVSPropertyOp27
 70
     1
  0
XRECORD
  5
495
102
{ACAD_REACTORS
330
494
102
}
330
494
100
AcDbXrecord
280
     1
102
RTVSPropertyOp0
 70
     1
102
RTVSPropertyOp1
 70
     1
102
RTVSPropertyOp2
 70
     1
102
RTVSPropertyOp3
 70
     1
102
RTVSPropertyOp4
 70
     1
102
RTVSPropertyOp5
 70
     1
102
RTVSPropertyOp6
 70
     1
102
RTVSPropertyOp7
 70
     1
102
RTVSPropertyOp8
 70
     1
102
RTVSPropertyOp9
 70
     1
102
RTVSPropertyOp10
 70
     1
102
RTVSPropertyOp11
 70
     1
102
RTVSPropertyOp12
 70
     1
102
RTVSPropertyOp13
 70
     1
102
RTVSPropertyOp14
 70
     1
102
RTVSPropertyOp15
 70
     1
102
RTVSPropertyOp16
 70
     1
102
RTVSPropertyOp17
 70
     1
102
RTVSPropertyOp18
 70
     1
102
RTVSPropertyOp19
 70
     1
102
RTVSPropertyOp20
 70
     1
102
RTVSPropertyOp21
 70
     1
102
RTVSPropertyOp22
 70
     1
102
RTVSPropertyOp23
 70
     1
102
RTVSPropertyOp24
 70
     1
102
RTVSPropertyOp25
 70
     1
102
RTVSPropertyOp26
 70
     1
102
RTVSPropertyOp27
 70
     1
  0
XRECORD
  5
497
102
{ACAD_REACTORS
330
496
102
}
330
496
100
AcDbXrecord
280
     1
102
RTVSPropertyOp0
 70
     1
102
RTVSPropertyOp1
 70
     1
102
RTVSPropertyOp2
 70
     1
102
RTVSPropertyOp3
 70
     1
102
RTVSPropertyOp4
 70
     1
102
RTVSPropertyOp5
 70
     1
102
RTVSPropertyOp6
 70
     1
102
RTVSPropertyOp7
 70
     1
102
RTVSPropertyOp8
 70
     1
102
RTVSPropertyOp9
 70
     1
102
RTVSPropertyOp10
 70
     1
102
RTVSPropertyOp11
 70
     1
102
RTVSPropertyOp12
 70
     1
102
RTVSPropertyOp13
 70
     1
102
RTVSPropertyOp14
 70
     1
102
RTVSPropertyOp15
 70
     1
102
RTVSPropertyOp16
 70
     1
102
RTVSPropertyOp17
 70
     1
102
RTVSPropertyOp18
 70
     1
102
RTVSPropertyOp19
 70
     1
102
RTVSPropertyOp20
 70
     1
102
RTVSPropertyOp21
 70
     1
102
RTVSPropertyOp22
 70
     1
102
RTVSPropertyOp23
 70
     1
102
RTVSPropertyOp24
 70
     1
102
RTVSPropertyOp25
 70
     1
102
RTVSPropertyOp26
 70
     1
102
RTVSPropertyOp27
 70
     1
  0
XRECORD
  5
499
102
{ACAD_REACTORS
330
498
102
}
330
498
100
AcDbXrecord
280
     1
102
RTVSPropertyOp0
 70
     1
102
RTVSPropertyOp1
 70
     1
102
RTVSPropertyOp2
 70
     1
102
RTVSPropertyOp3
 70
     1
102
RTVSPropertyOp4
 70
     1
102
RTVSPropertyOp5
 70
     1
102
RTVSPropertyOp6
 70
     1
102
RTVSPropertyOp7
 70
     1
102
RTVSPropertyOp8
 70
     1
102
RTVSPropertyOp9
 70
     1
102
RTVSPropertyOp10
 70
     1
102
RTVSPropertyOp11
 70
     1
102
RTVSPropertyOp12
 70
     1
102
RTVSPropertyOp13
 70
     1
102
RTVSPropertyOp14
 70
     1
102
RTVSPropertyOp15
 70
     1
102
RTVSPropertyOp16
 70
     1
102
RTVSPropertyOp17
 70
     1
102
RTVSPropertyOp18
 70
     1
102
RTVSPropertyOp19
 70
     1
102
RTVSPropertyOp20
 70
     1
102
RTVSPropertyOp21
 70
     1
102
RTVSPropertyOp22
 70
     1
102
RTVSPropertyOp23
 70
     1
102
RTVSPropertyOp24
 70
     1
102
RTVSPropertyOp25
 70
     1
102
RTVSPropertyOp26
 70
     1
102
RTVSPropertyOp27
 70
     1
  0
XRECORD
  5
4AD
102
{ACAD_REACTORS
330
4AC
102
}
330
4AC
100
AcDbXrecord
280
     1
102
RTVSPropertyOp0
 70
     1
102
RTVSPropertyOp1
 70
     1
102
RTVSPropertyOp2
 70
     1
102
RTVSPropertyOp3
 70
     1
102
RTVSPropertyOp4
 70
     1
102
RTVSPropertyOp5
 70
     1
102
RTVSPropertyOp6
 70
     1
102
RTVSPropertyOp7
 70
     1
102
RTVSPropertyOp8
 70
     1
102
RTVSPropertyOp9
 70
     1
102
RTVSPropertyOp10
 70
     1
102
RTVSPropertyOp11
 70
     1
102
RTVSPropertyOp12
 70
     1
102
RTVSPropertyOp13
 70
     1
102
RTVSPropertyOp14
 70
     1
102
RTVSPropertyOp15
 70
     1
102
RTVSPropertyOp16
 70
     1
102
RTVSPropertyOp17
 70
     1
102
RTVSPropertyOp18
 70
     1
102
RTVSPropertyOp19
 70
     1
102
RTVSPropertyOp20
 70
     1
102
RTVSPropertyOp21
 70
     1
102
RTVSPropertyOp22
 70
     1
102
RTVSPropertyOp23
 70
     1
102
RTVSPropertyOp24
 70
     1
102
RTVSPropertyOp25
 70
     1
102
RTVSPropertyOp26
 70
     1
102
RTVSPropertyOp27
 70
     1
  0
XRECORD
  5
4AB
102
{ACAD_REACTORS
330
4AA
102
}
330
4AA
100
AcDbXrecord
280
     1
102
RTVSPropertyOp0
 70
     1
102
RTVSPropertyOp1
 70
     1
102
RTVSPropertyOp2
 70
     1
102
RTVSPropertyOp3
 70
     1
102
RTVSPropertyOp4
 70
     1
102
RTVSPropertyOp5
 70
     1
102
RTVSPropertyOp6
 70
     1
102
RTVSPropertyOp7
 70
     1
102
RTVSPropertyOp8
 70
     1
102
RTVSPropertyOp9
 70
     1
102
RTVSPropertyOp10
 70
     1
102
RTVSPropertyOp11
 70
     1
102
RTVSPropertyOp12
 70
     1
102
RTVSPropertyOp13
 70
     1
102
RTVSPropertyOp14
 70
     1
102
RTVSPropertyOp15
 70
     1
102
RTVSPropertyOp16
 70
     1
102
RTVSPropertyOp17
 70
     1
102
RTVSPropertyOp18
 70
     1
102
RTVSPropertyOp19
 70
     1
102
RTVSPropertyOp20
 70
     1
102
RTVSPropertyOp21
 70
     1
102
RTVSPropertyOp22
 70
     1
102
RTVSPropertyOp23
 70
     1
102
RTVSPropertyOp24
 70
     1
102
RTVSPropertyOp25
 70
     1
102
RTVSPropertyOp26
 70
     1
102
RTVSPropertyOp27
 70
     1
  0
ENDSEC
  0
EOF
